  0
SECTION
  2
HEADER
  9
$ACADVER
  1
AC1015
  9
$ACADMAINTVER
 70
     6
  9
$DWGCODEPAGE
  3
ANSI_932
  9
$INSBASE
 10
0.0
 20
0.0
 30
0.0
  9
$EXTMIN
 10
0.0
 20
0.0
 30
0.0
  9
$EXTMAX
 10
0.0
 20
0.0
 30
0.0
  9
$LIMMIN
 10
0.0
 20
0.0
  9
$LIMMAX
 10
0.0
 20
0.0
  9
$ORTHOMODE
 70
     0
  9
$REGENMODE
 70
     1
  9
$FILLMODE
 70
     1
  9
$QTEXTMODE
 70
     0
  9
$MIRRTEXT
 70
     1
  9
$LTSCALE
 40
1.0
  9
$ATTMODE
 70
     1
  9
$TEXTSIZE
 40
0.2
  9
$TRACEWID
 40
0.05
  9
$TEXTSTYLE
  7
Standard
  9
$CLAYER
  8
0
  9
$CELTYPE
  6
Continuous
  9
$CECOLOR
 62
   256
  9
$CELTSCALE
 40
1.0
  9
$DISPSILH
 70
     0
  9
$DIMSCALE
 40
1.0
  9
$DIMASZ
 40
0.18
  9
$DIMEXO
 40
0.0625
  9
$DIMDLI
 40
0.38
  9
$DIMRND
 40
0.0
  9
$DIMDLE
 40
0.0
  9
$DIMEXE
 40
0.18
  9
$DIMTP
 40
0.0
  9
$DIMTM
 40
0.0
  9
$DIMTXT
 40
0.0
  9
$DIMCEN
 40
0.09
  9
$DIMTSZ
 40
0.0
  9
$DIMTOL
 70
     0
  9
$DIMLIM
 70
     0
  9
$DIMTIH
 70
     1
  9
$DIMTOH
 70
     1
  9
$DIMSE1
 70
     0
  9
$DIMSE2
 70
     0
  9
$DIMTAD
 70
     0
  9
$DIMZIN
 70
     0
  9
$DIMBLK
  1

  9
$DIMASO
 70
     1
  9
$DIMSHO
 70
     1
  9
$DIMPOST
  1

  9
$DIMAPOST
  1

  9
$DIMALT
 70
     0
  9
$DIMALTD
 70
     2
  9
$DIMALTF
 40
25.4
  9
$DIMLFAC
 40
1.0
  9
$DIMTOFL
 70
     0
  9
$DIMTVP
 40
0.0
  9
$DIMTIX
 70
     0
  9
$DIMSOXD
 70
     0
  9
$DIMSAH
 70
     0
  9
$DIMBLK1
  1

  9
$DIMBLK2
  1

  9
$DIMSTYLE
  2
Standard
  9
$DIMCLRD
 70
   256
  9
$DIMCLRE
 70
   256
  9
$DIMCLRT
 70
   256
  9
$DIMTFAC
 40
1.0
  9
$DIMGAP
 40
0.09
  9
$DIMJUST
 70
     0
  9
$DIMSD1
 70
     0
  9
$DIMSD2
 70
     0
  9
$DIMTOLJ
 70
     1
  9
$DIMTZIN
 70
     0
  9
$DIMALTZ
 70
     0
  9
$DIMALTTZ
 70
     0
  9
$DIMUPT
 70
     0
  9
$DIMDEC
 70
     4
  9
$DIMTDEC
 70
     4
  9
$DIMALTU
 70
     2
  9
$DIMALTTD
 70
     2
  9
$DIMTXSTY
  7
Standard
  9
$DIMAUNIT
 70
     0
  9
$DIMADEC
 70
     0
  9
$DIMALTRND
 40
0.0
  9
$DIMAZIN
 70
     0
  9
$DIMDSEP
 70
     0
  9
$DIMATFIT
 70
     3
  9
$DIMFRAC
 70
     0
  9
$DIMLDRBLK
  1

  9
$DIMLUNIT
 70
     2
  9
$DIMLWD
 70
    -1
  9
$DIMLWE
 70
    -1
  9
$DIMTMOVE
 70
     0
  9
$LUNITS
 70
     2
  9
$LUPREC
 70
     4
  9
$SKETCHINC
 40
0.1
  9
$FILLETRAD
 40
0.0
  9
$AUNITS
 70
     0
  9
$AUPREC
 70
     0
  9
$MENU
  1
acad
  9
$ELEVATION
 40
0.0
  9
$PELEVATION
 40
0.0
  9
$THICKNESS
 40
0.0
  9
$LIMCHECK
 70
     0
  9
$CHAMFERA
 40
0.0
  9
$CHAMFERB
 40
0.0
  9
$CHAMFERC
 40
0.0
  9
$CHAMFERD
 40
0.0
  9
$SKPOLY
 70
     0
  9
$TDCREATE
 40
0.000000000
  9
$TDUCREATE
 40
0.000000000
  9
$TDUPDATE
 40
0.000000000
  9
$TDUUPDATE
 40
0.000000000
  9
$TDINDWG
 40
0.0000000000
  9
$TDUSRTIMER
 40
0.0000000000
  9
$USRTIMER
 70
     1
  9
$ANGBASE
 50
0.0
  9
$ANGDIR
 70
     0
  9
$PDMODE
 70
    32
  9
$PDSIZE
 40
1.5
  9
$PLINEWID
 40
0.0
  9
$SPLFRAME
 70
     0
  9
$SPLINETYPE
 70
     6
  9
$SPLINESEGS
 70
     8
  9
$HANDSEED
  5
2EF
  9
$SURFTAB1
 70
     6
  9
$SURFTAB2
 70
     6
  9
$SURFTYPE
 70
     6
  9
$SURFU
 70
     6
  9
$SURFV
 70
     6
  9
$UCSBASE
  2

  9
$UCSNAME
  2

  9
$UCSORG
 10
0.0
 20
0.0
 30
0.0
  9
$UCSXDIR
 10
1.0
 20
0.0
 30
0.0
  9
$UCSYDIR
 10
0.0
 20
1.0
 30
0.0
  9
$UCSORTHOREF
  2

  9
$UCSORTHOVIEW
 70
     0
  9
$UCSORGTOP
 10
0.0
 20
0.0
 30
0.0
  9
$UCSORGBOTTOM
 10
0.0
 20
0.0
 30
0.0
  9
$UCSORGLEFT
 10
0.0
 20
0.0
 30
0.0
  9
$UCSORGRIGHT
 10
0.0
 20
0.0
 30
0.0
  9
$UCSORGFRONT
 10
0.0
 20
0.0
 30
0.0
  9
$UCSORGBACK
 10
0.0
 20
0.0
 30
0.0
  9
$PUCSBASE
  2

  9
$PUCSNAME
  2

  9
$PUCSORG
 10
0.0
 20
0.0
 30
0.0
  9
$PUCSXDIR
 10
1.0
 20
0.0
 30
0.0
  9
$PUCSYDIR
 10
0.0
 20
1.0
 30
0.0
  9
$PUCSORTHOREF
  2

  9
$PUCSORTHOVIEW
 70
     0
  9
$PUCSORGTOP
 10
0.0
 20
0.0
 30
0.0
  9
$PUCSORGBOTTOM
 10
0.0
 20
0.0
 30
0.0
  9
$PUCSORGLEFT
 10
0.0
 20
0.0
 30
0.0
  9
$PUCSORGRIGHT
 10
0.0
 20
0.0
 30
0.0
  9
$PUCSORGFRONT
 10
0.0
 20
0.0
 30
0.0
  9
$PUCSORGBACK
 10
0.0
 20
0.0
 30
0.0
  9
$USERI1
 70
     0
  9
$USERI2
 70
     0
  9
$USERI3
 70
     0
  9
$USERI4
 70
     0
  9
$USERI5
 70
     0
  9
$USERR1
 40
0.0
  9
$USERR2
 40
0.0
  9
$USERR3
 40
0.0
  9
$USERR4
 40
0.0
  9
$USERR5
 40
0.0
  9
$WORLDVIEW
 70
     1
  9
$SHADEDGE
 70
     3
  9
$SHADEDIF
 70
    70
  9
$TILEMODE
 70
     1
  9
$MAXACTVP
 70
    16
  9
$PINSBASE
 10
0.0
 20
0.0
 30
0.0
  9
$PLIMCHECK
 70
     0
  9
$PEXTMIN
 10
1.000000E+20
 20
1.000000E+20
 30
1.000000E+20
  9
$PEXTMAX
 10
-1.000000E+20
 20
-1.000000E+20
 30
-1.000000E+20
  9
$PLIMMIN
 10
0.0
 20
0.0
  9
$PLIMMAX
 10
12.0
 20
9.0
  9
$UNITMODE
 70
     0
  9
$VISRETAIN
 70
     0
  9
$PLINEGEN
 70
     1
  9
$PSLTSCALE
 70
     1
  9
$TREEDEPTH
 70
  3020
  9
$CMLSTYLE
  2
Standard
  9
$CMLJUST
 70
     0
  9
$CMLSCALE
 40
1.0
  9
$PROXYGRAPHICS
 70
     0
  9
$MEASUREMENT
 70
     0
  9
$CELWEIGHT
370
     0
  9
$ENDCAPS
280
     0
  9
$JOINSTYLE
280
     0
  9
$LWDISPLAY
290
     0
  9
$INSUNITS
 70
     0
  9
$HYPERLINKBASE
  1

  9
$STYLESHEET
  1

  9
$XEDIT
290
     1
  9
$CEPSNTYPE
380
     0
  9
$PSTYLEMODE
290
     1
  9
$FINGERPRINTGUID
  2

  9
$VERSIONGUID
  2

  9
$EXTNAMES
290
     1
  9
$PSVPSCALE
 40
0.0
  0
ENDSEC
  0
SECTION
  2
CLASSES
  0
CLASS
  1
LWPOLYLINE
  2
AcDbPolyline
  3
AutoCAD 2000
 90
    32768
280
     0
281
     1
  0
CLASS
  1
IMAGE
  2
AcDbRasterImage
  3
ISM
 90
    32895
280
     0
281
     1
  0
CLASS
  1
OLE2FRAME
  2
AcDbOle2Frame
  3
AutoCAD 2000
 90
    32768
280
     0
281
     1
  0
CLASS
  1
HATCH
  2
AcDbHatch
  3
AutoCAD 2000
 90
    32768
280
     0
281
     1
  0
CLASS
  1
DICTIONARYVAR
  2
AcDbDictionaryVar
  3
AutoCAD 2000
 90
    32768
280
     0
281
     0
  0
CLASS
  1
RASTERVARIABLES
  2
AcDbRasterVariables
  3
ISM
 90
    32768
280
     0
281
     0
  0
CLASS
  1
IMAGEDEF
  2
AcDbRasterImageDef
  3
ISM
 90
    32768
280
     0
281
     0
  0
CLASS
  1
IMAGEDEF_REACTOR
  2
AcDbRasterImageDefReactor
  3
ISM
 90
    32769
280
     0
281
     0
  0
CLASS
  1
IDBUFFER
  2
AcDbIdBuffer
  3
AutoCAD 2000
 90
    32768
280
     0
281
     0
  0
CLASS
  1
SPATIAL_FILTER
  2
AcDbSpatialFilter
  3
AutoCAD 2000
 90
    32768
280
     0
281
     0
  0
CLASS
  1
XRECORD
  2
AcDbXrecord
  3
AutoCAD 2000
 90
    32768
280
     0
281
     0
  0
CLASS
  1
SORTENTSTABLE
  2
AcDbSortentsTable
  3
AutoCAD 2000
 90
    32768
280
     0
281
     0
  0
CLASS
  1
LAYER_INDEX
  2
AcDbLayerIndex
  3
AutoCAD 2000
 90
    32768
280
     0
281
     0
  0
CLASS
  1
SPATIAL_INDEX
  2
AcDbSpatialIndex
  3
AutoCAD 2000
 90
    32768
280
     0
281
     0
  0
CLASS
  1
OBJECT_PTR
  2
CAseDLPNTableRecord
  3
"ASE-LPNTableRecord"
 90
    32769
280
     0
281
     0
  0
CLASS
  1
LAYOUT
  2
AcDbLayout
  3
AutoCAD 2000
 90
        0
280
     0
281
     0
  0
CLASS
  1
PLOTSETTINGS
  2
AcDbPlotSettings
  3
AutoCAD 2000
 90
    32768
280
     0
281
     0
  0
CLASS
  1
ACDBDICTIONARYWDFLT
  2
AcDbDictionaryWithDefault
  3
AutoCAD 2000
 90
        0
280
     0
281
     0
  0
CLASS
  1
ACDBPLACEHOLDER
  2
AcDbPlaceHolder
  3
AutoCAD 2000
 90
        0
280
     0
281
     0
  0
ENDSEC
  0
SECTION
  2
TABLES
  0
TABLE
  2
VPORT
  5
7
100
AcDbSymbolTable
 70
     1
  0
VPORT
  5
15
100
AcDbSymbolTableRecord
100
AcDbViewportTableRecord
  2
*ACTIVE
 70
     0
 10
0.0
 20
0.0
 11
1.0
 21
1.0
 12
0.0
 22
0.0
 13
0.0
 23
0.0
 14
1.0
 24
1.0
 15
0.0
 25
0.0
 16
0.0
 26
0.0
 36
1.0
 17
0.0
 27
0.0
 37
0.0
 40
297.0
 41
0.688564
 42
50.0
 43
0.0
 44
0.0
 50
0.0
 51
0.0
 71
     0
 72
   100
 73
     1
 74
     1
 75
     0
 76
     0
 77
     0
 78
     0
281
     0
 65
     0
110
0.0
120
0.0
130
0.0
111
1.0
121
0.0
131
0.0
112
0.0
122
1.0
132
0.0
345
0
346
0
 79
     0
146
0.0
  0
ENDTAB
  0
TABLE
  2
LTYPE
  5
4
100
AcDbSymbolTable
 70
    19
  0
LTYPE
  5
11
100
AcDbSymbolTableRecord
100
AcDbLinetypeTableRecord
  2
ByBlock
 70
    64
  3

 72
    65
 73
     0
 40
0.0
  0
LTYPE
  5
12
100
AcDbSymbolTableRecord
100
AcDbLinetypeTableRecord
  2
ByLayer
 70
    64
  3

 72
    65
 73
     0
 40
0.0
  0
LTYPE
  5
13
100
AcDbSymbolTableRecord
100
AcDbLinetypeTableRecord
  2
Continuous
 70
    64
  3
Solid line
 72
    65
 73
     0
 40
0.0
  0
LTYPE
  5
23
100
AcDbSymbolTableRecord
100
AcDbLinetypeTableRecord
  2
破線A
 70
     0
  3

 72
    65
 73
     2
 40
3.5
 49
2.8
 74
     0
 49
-0.7
 74
     0
  0
LTYPE
  5
24
100
AcDbSymbolTableRecord
100
AcDbLinetypeTableRecord
  2
破線B
 70
     0
  3

 72
    65
 73
     2
 40
6.3
 49
5.6
 74
     0
 49
-0.7
 74
     0
  0
LTYPE
  5
25
100
AcDbSymbolTableRecord
100
AcDbLinetypeTableRecord
  2
1点鎖線A
 70
     0
  3

 72
    65
 73
     4
 40
8.4
 49
6.3
 74
     0
 49
-0.7
 74
     0
 49
0.7
 74
     0
 49
-0.7
 74
     0
  0
LTYPE
  5
26
100
AcDbSymbolTableRecord
100
AcDbLinetypeTableRecord
  2
1点鎖線B
 70
     0
  3

 72
    65
 73
     4
 40
30.0
 49
27.9
 74
     0
 49
-0.7
 74
     0
 49
0.7
 74
     0
 49
-0.7
 74
     0
  0
LTYPE
  5
27
100
AcDbSymbolTableRecord
100
AcDbLinetypeTableRecord
  2
2点鎖線A
 70
     0
  3

 72
    65
 73
     6
 40
14.0
 49
10.5
 74
     0
 49
-0.7
 74
     0
 49
0.7
 74
     0
 49
-0.7
 74
     0
 49
0.7
 74
     0
 49
-0.7
 74
     0
  0
LTYPE
  5
28
100
AcDbSymbolTableRecord
100
AcDbLinetypeTableRecord
  2
2点鎖線B
 70
     0
  3

 72
    65
 73
     6
 40
30.0
 49
26.5
 74
     0
 49
-0.7
 74
     0
 49
0.7
 74
     0
 49
-0.7
 74
     0
 49
0.7
 74
     0
 49
-0.7
 74
     0
  0
LTYPE
  5
29
100
AcDbSymbolTableRecord
100
AcDbLinetypeTableRecord
  2
点線A
 70
     0
  3

 72
    65
 73
     2
 40
1.4
 49
0.7
 74
     0
 49
-0.7
 74
     0
  0
LTYPE
  5
2A
100
AcDbSymbolTableRecord
100
AcDbLinetypeTableRecord
  2
点線B
 70
     0
  3

 72
    65
 73
     2
 40
2.8
 49
1.4
 74
     0
 49
-1.4
 74
     0
  0
LTYPE
  5
2B
100
AcDbSymbolTableRecord
100
AcDbLinetypeTableRecord
  2
CENTER
 70
     0
  3

 72
    65
 73
     4
 40
2.0
 49
1.25
 74
     0
 49
-0.25
 74
     0
 49
0.25
 74
     0
 49
-0.25
 74
     0
  0
LTYPE
  5
2C
100
AcDbSymbolTableRecord
100
AcDbLinetypeTableRecord
  2
DOTS
 70
     0
  3

 72
    65
 73
     2
 40
0.1
 49
0.05
 74
     0
 49
-0.05
 74
     0
  0
LTYPE
  5
2D
100
AcDbSymbolTableRecord
100
AcDbLinetypeTableRecord
  2
HIDDEN
 70
     0
  3

 72
    65
 73
     2
 40
0.166667
 49
0.125
 74
     0
 49
-0.041667
 74
     0
  0
LTYPE
  5
2E
100
AcDbSymbolTableRecord
100
AcDbLinetypeTableRecord
  2
PHANTOM
 70
     0
  3

 72
    65
 73
     6
 40
2.5
 49
1.25
 74
     0
 49
-0.25
 74
     0
 49
0.25
 74
     0
 49
-0.25
 74
     0
 49
0.25
 74
     0
 49
-0.25
 74
     0
  0
LTYPE
  5
2F
100
AcDbSymbolTableRecord
100
AcDbLinetypeTableRecord
  2
DASHED
 70
     0
  3

 72
    65
 73
     2
 40
19.05
 49
12.7
 74
     0
 49
-6.35
 74
     0
  0
LTYPE
  5
30
100
AcDbSymbolTableRecord
100
AcDbLinetypeTableRecord
  2
CENTER2
 70
     0
  3

 72
    65
 73
     4
 40
1.125
 49
0.75
 74
     0
 49
-0.125
 74
     0
 49
0.125
 74
     0
 49
-0.125
 74
     0
  0
LTYPE
  5
31
100
AcDbSymbolTableRecord
100
AcDbLinetypeTableRecord
  2
DOT
 70
     0
  3

 72
    65
 73
     0
 40
0.0
  0
LTYPE
  5
32
100
AcDbSymbolTableRecord
100
AcDbLinetypeTableRecord
  2
DASHED2
 70
     0
  3

 72
    65
 73
     2
 40
9.525
 49
6.35
 74
     0
 49
-3.175
 74
     0
  0
ENDTAB
  0
TABLE
  2
LAYER
  5
2
100
AcDbSymbolTable
 70
    18
  0
LAYER
  5
14
100
AcDbSymbolTableRecord
100
AcDbLayerTableRecord
  2
0
 70
     0
 62
     7
  6
Continuous
290
     1
370
    -3
390
1D
  0
LAYER
  5
3E
100
AcDbSymbolTableRecord
100
AcDbLayerTableRecord
  2
ﾚｲﾔ1
 70
     0
 62
     6
  6
Continuous
290
     1
370
    25
390
1D
  0
LAYER
  5
3F
100
AcDbSymbolTableRecord
100
AcDbLayerTableRecord
  2
ﾚｲﾔ2
 70
     0
 62
     3
  6
破線A
290
     1
370
    13
390
1D
  0
LAYER
  5
40
100
AcDbSymbolTableRecord
100
AcDbLayerTableRecord
  2
ﾚｲﾔ3
 70
     0
 62
    15
  6
1点鎖線A
290
     1
370
     0
390
1D
  0
LAYER
  5
41
100
AcDbSymbolTableRecord
100
AcDbLayerTableRecord
  2
ﾚｲﾔ4
 70
     0
 62
     5
  6
2点鎖線A
290
     1
370
     0
390
1D
  0
LAYER
  5
42
100
AcDbSymbolTableRecord
100
AcDbLayerTableRecord
  2
ﾚｲﾔ5
 70
     0
 62
     2
  6
Continuous
290
     1
370
    13
390
1D
  0
LAYER
  5
43
100
AcDbSymbolTableRecord
100
AcDbLayerTableRecord
  2
ﾚｲﾔ6
 70
     0
 62
     3
  6
Continuous
290
     1
370
    18
390
1D
  0
LAYER
  5
44
100
AcDbSymbolTableRecord
100
AcDbLayerTableRecord
  2
補助線
 70
     0
 62
     1
  6
点線A
290
     1
370
    -3
390
1D
  0
LAYER
  5
45
100
AcDbSymbolTableRecord
100
AcDbLayerTableRecord
  2
文字
 70
     0
 62
     3
  6
Continuous
290
     1
370
    18
390
1D
  0
LAYER
  5
46
100
AcDbSymbolTableRecord
100
AcDbLayerTableRecord
  2
ﾚｲﾔ9
 70
     0
 62
     6
  6
Continuous
290
     1
370
    -3
390
1D
  0
LAYER
  5
47
100
AcDbSymbolTableRecord
100
AcDbLayerTableRecord
  2
ﾚｲﾔ10
 70
     0
 62
    15
  6
Continuous
290
     1
370
    -3
390
1D
  0
LAYER
  5
48
100
AcDbSymbolTableRecord
100
AcDbLayerTableRecord
  2
ﾚｲﾔ11
 70
     0
 62
     3
  6
Continuous
290
     1
370
    18
390
1D
  0
LAYER
  5
49
100
AcDbSymbolTableRecord
100
AcDbLayerTableRecord
  2
ﾚｲﾔ12
 70
     0
 62
     2
  6
Continuous
290
     1
370
    -3
390
1D
  0
LAYER
  5
4A
100
AcDbSymbolTableRecord
100
AcDbLayerTableRecord
  2
ﾚｲﾔ13
 70
     0
 62
     1
  6
Continuous
290
     1
370
    -3
390
1D
  0
LAYER
  5
4B
100
AcDbSymbolTableRecord
100
AcDbLayerTableRecord
  2
ﾚｲﾔ14
 70
     0
 62
     5
  6
Continuous
290
     1
370
    -3
390
1D
  0
LAYER
  5
4C
100
AcDbSymbolTableRecord
100
AcDbLayerTableRecord
  2
寸法
 70
     0
 62
     2
  6
Continuous
290
     1
370
     0
390
1D
  0
LAYER
  5
4D
100
AcDbSymbolTableRecord
100
AcDbLayerTableRecord
  2
ﾊｯﾁﾝｸﾞ
 70
     0
 62
    15
  6
Continuous
290
     1
370
     0
390
1D
  0
LAYER
  5
4E
100
AcDbSymbolTableRecord
100
AcDbLayerTableRecord
  2
ｽｹｯﾁ
 70
     0
 62
     2
  6
Continuous
290
     1
370
     0
390
1D
  0
ENDTAB
  0
TABLE
  2
STYLE
  5
3
100
AcDbSymbolTable
 70
    13
  0
STYLE
  5
17
100
AcDbSymbolTableRecord
100
AcDbTextStyleTableRecord
  2
Standard
 70
     0
 40
1.0
 41
1.0
 50
0.0
 71
     0
 42
0.0
  3
txt
  4

  0
STYLE
  5
33
100
AcDbSymbolTableRecord
100
AcDbTextStyleTableRecord
  2
文字ｽﾀｲﾙ1
 70
     0
 40
5.0
 41
0.8
 50
0.0
 71
     0
 42
0.0
  3
MONOTXT
  4
BIGFONT
  0
STYLE
  5
34
100
AcDbSymbolTableRecord
100
AcDbTextStyleTableRecord
  2
5mm文字
 70
     0
 40
5.0
 41
0.8
 50
0.0
 71
     0
 42
0.0
  3
MONOTXT
  4
BIGFONT
  0
STYLE
  5
35
100
AcDbSymbolTableRecord
100
AcDbTextStyleTableRecord
  2
文字ｽﾀｲﾙ2
 70
     0
 40
2.0
 41
0.8
 50
0.0
 71
     0
 42
0.0
  3
MONOTXT
  4
BIGFONT
  0
STYLE
  5
36
100
AcDbSymbolTableRecord
100
AcDbTextStyleTableRecord
  2
文字ｽﾀｲﾙ3
 70
     0
 40
3.0
 41
0.8
 50
0.0
 71
     0
 42
0.0
  3
MONOTXT
  4
BIGFONT
  0
STYLE
  5
37
100
AcDbSymbolTableRecord
100
AcDbTextStyleTableRecord
  2
文字ｽﾀｲﾙ4
 70
     0
 40
4.0
 41
0.8
 50
0.0
 71
     0
 42
0.0
  3
MONOTXT
  4
BIGFONT
  0
STYLE
  5
38
100
AcDbSymbolTableRecord
100
AcDbTextStyleTableRecord
  2
文字ｽﾀｲﾙ5
 70
     0
 40
5.0
 41
0.8
 50
0.0
 71
     0
 42
0.0
  3
MONOTXT
  4
BIGFONT
  0
STYLE
  5
39
100
AcDbSymbolTableRecord
100
AcDbTextStyleTableRecord
  2
文字ｽﾀｲﾙ6
 70
     0
 40
6.0
 41
0.8
 50
0.0
 71
     0
 42
0.0
  3
MONOTXT
  4
BIGFONT
  0
STYLE
  5
3A
100
AcDbSymbolTableRecord
100
AcDbTextStyleTableRecord
  2
文字ｽﾀｲﾙ7
 70
     0
 40
7.0
 41
0.8
 50
0.0
 71
     0
 42
0.0
  3
MONOTXT
  4
BIGFONT
  0
STYLE
  5
3B
100
AcDbSymbolTableRecord
100
AcDbTextStyleTableRecord
  2
文字ｽﾀｲﾙ8
 70
     0
 40
8.0
 41
0.8
 50
0.0
 71
     0
 42
0.0
  3
MONOTXT
  4
BIGFONT
  0
STYLE
  5
3C
100
AcDbSymbolTableRecord
100
AcDbTextStyleTableRecord
  2
文字ｽﾀｲﾙ9
 70
     0
 40
9.0
 41
0.8
 50
0.0
 71
     0
 42
0.0
  3
MONOTXT
  4
BIGFONT
  0
STYLE
  5
3D
100
AcDbSymbolTableRecord
100
AcDbTextStyleTableRecord
  2
文字ｽﾀｲﾙ10
 70
     0
 40
10.0
 41
0.8
 50
0.0
 71
     0
 42
0.0
  3
MONOTXT
  4
BIGFONT
  0
STYLE
  5
2D1
100
AcDbSymbolTableRecord
100
AcDbTextStyleTableRecord
  2
TextStyle01
 70
     0
 40
0.0
 41
0.8
 50
0.0
 71
     0
 42
0.0
  3
MONOTXT
  4
BIGFONT
  0
ENDTAB
  0
TABLE
  2
VIEW
  5
5
100
AcDbSymbolTable
 70
     0
  0
ENDTAB
  0
TABLE
  2
UCS
  5
6
100
AcDbSymbolTable
 70
     0
  0
ENDTAB
  0
TABLE
  2
APPID
  5
8
100
AcDbSymbolTable
 70
     1
  0
APPID
  5
16
100
AcDbSymbolTableRecord
100
AcDbRegAppTableRecord
  2
ACAD
 70
     0
  0
ENDTAB
  0
TABLE
  2
DIMSTYLE
  5
9
100
AcDbSymbolTable
 70
     2
100
AcDbDimStyleTable
 71
     0
  0
DIMSTYLE
105
18
100
AcDbSymbolTableRecord
100
AcDbDimStyleTableRecord
  2
Standard
 70
     0
  3

  4

 40
1.0
 41
0.18
 42
0.0625
 43
0.38
 44
0.18
 45
0.0
 46
0.0
 47
0.0
 48
0.0
 71
     0
 72
     0
 73
     1
 74
     1
 75
     0
 76
     0
 77
     0
 78
     0
 79
     0
140
0.18
141
0.09
142
0.0
143
25.4
144
1.0
145
0.0
146
1.0
147
0.09
148
0.0
170
     0
171
     2
172
     0
173
     0
174
     0
175
     0
176
     0
177
     0
178
     0
179
     0
271
     4
272
     4
273
     2
274
     2
275
     0
276
     0
277
     2
278
    46
279
     0
280
     0
281
     0
282
     0
283
     1
284
     0
285
     0
286
     0
288
     0
340
17
341
0
342
0
343
0
344
0
371
    -2
372
    -2
  0
DIMSTYLE
105
2BF
100
AcDbSymbolTableRecord
100
AcDbDimStyleTableRecord
  2
＜＞中寸法
 70
     0
  3

  4

 40
1.0
 41
3.0
 42
1.5
 43
0.38
 44
0.0
 45
0.01
 46
0.0
 47
0.0
 48
0.0
 71
     0
 72
     0
 73
     0
 74
     0
 75
     0
 76
     0
 77
     1
 78
     8
 79
     2
140
0.0
141
0.09
142
0.0
143
25.4
144
1.0
145
0.0
146
0.4
147
2.0
148
0.0
170
     0
171
     2
172
     1
173
     1
174
     0
175
     0
176
   256
177
   256
178
   256
179
     2
271
     2
272
     4
273
     2
274
     2
275
     0
276
     0
277
     2
278
    44
279
     0
280
     0
281
     0
282
     0
283
     1
284
     8
285
     0
286
     8
288
     0
340
33
341
0
342
0
343
0
344
0
371
    -1
372
    -1
  0
ENDTAB
  0
TABLE
  2
BLOCK_RECORD
  5
1
100
AcDbSymbolTable
 70
     2
  0
BLOCK_RECORD
  5
A
100
AcDbSymbolTableRecord
100
AcDbBlockTableRecord
  2
*MODEL_SPACE
340
20
  0
BLOCK_RECORD
  5
B
100
AcDbSymbolTableRecord
100
AcDbBlockTableRecord
  2
*PAPER_SPACE
340
21
  0
BLOCK_RECORD
  5
2C0
100
AcDbSymbolTableRecord
100
AcDbBlockTableRecord
  2
*G0
340
0
  0
BLOCK_RECORD
  5
2D5
100
AcDbSymbolTableRecord
100
AcDbBlockTableRecord
  2
*G1
340
0
  0
ENDTAB
  0
ENDSEC
  0
SECTION
  2
BLOCKS
  0
BLOCK
  5
D
100
AcDbEntity
  8
0
100
AcDbBlockBegin
  2
*MODEL_SPACE
 70
     0
 10
0.0
 20
0.0
 30
0.0
  3
*MODEL_SPACE
  1

  0
ENDBLK
  5
E
100
AcDbEntity
  8
0
100
AcDbBlockEnd
  0
BLOCK
  5
F
100
AcDbEntity
 67
     1
  8
0
100
AcDbBlockBegin
  2
*PAPER_SPACE
 70
     0
 10
0.0
 20
0.0
 30
0.0
  3
*PAPER_SPACE
  1

  0
ENDBLK
  5
10
100
AcDbEntity
 67
     1
  8
0
100
AcDbBlockEnd
  0
BLOCK
  5
2C1
100
AcDbEntity
  8
0
100
AcDbBlockBegin
  2
*G0
 70
     1
 10
0.0
 20
0.0
 30
0.0
  3
*G0
  1

  0
LINE
  5
2C2
100
AcDbEntity
  8
寸法
370
    -2
  6
ByBlock
 62
     0
100
AcDbLine
 10
-1.479171
 20
-3.729973
 30
0.0
 11
-1.479171
 21
-28.059761
 31
0.0
  0
LINE
  5
2C3
100
AcDbEntity
  8
寸法
370
    -2
  6
ByBlock
 62
     0
100
AcDbLine
 10
91.605935
 20
-8.198059
 30
0.0
 11
91.605935
 21
-28.059761
 31
0.0
  0
LINE
  5
2C4
100
AcDbEntity
  8
寸法
370
    -2
  6
ByBlock
 62
     0
100
AcDbLine
 10
-1.479171
 20
-26.059761
 30
0.0
 11
91.605935
 21
-26.059761
 31
0.0
  0
POLYLINE
  5
2C5
100
AcDbEntity
  8
寸法
370
    -2
  6
ByBlock
 62
     0
100
AcDb2dPolyline
 66
     1
 10
0.0
 20
0.0
 30
0.0
  0
VERTEX
  5
2C7
100
AcDbEntity
  8
寸法
370
    -2
  6
ByBlock
 62
     0
100
AcDbVertex
100
AcDb2dVertex
 10
1.418606
 20
-25.283304
 30
0.0
  0
VERTEX
  5
2C8
100
AcDbEntity
  8
寸法
370
    -2
  6
ByBlock
 62
     0
100
AcDbVertex
100
AcDb2dVertex
 10
-1.479171
 20
-26.059761
 30
0.0
  0
VERTEX
  5
2C9
100
AcDbEntity
  8
寸法
370
    -2
  6
ByBlock
 62
     0
100
AcDbVertex
100
AcDb2dVertex
 10
1.418606
 20
-26.836218
 30
0.0
  0
SEQEND
  5
2CA
100
AcDbEntity
  8
寸法
370
    -2
  6
ByBlock
 62
     0
  0
POLYLINE
  5
2CB
100
AcDbEntity
  8
寸法
370
    -2
  6
ByBlock
 62
     0
100
AcDb2dPolyline
 66
     1
 10
0.0
 20
0.0
 30
0.0
  0
VERTEX
  5
2CD
100
AcDbEntity
  8
寸法
370
    -2
  6
ByBlock
 62
     0
100
AcDbVertex
100
AcDb2dVertex
 10
88.708158
 20
-26.836218
 30
0.0
  0
VERTEX
  5
2CE
100
AcDbEntity
  8
寸法
370
    -2
  6
ByBlock
 62
     0
100
AcDbVertex
100
AcDb2dVertex
 10
91.605935
 20
-26.059761
 30
0.0
  0
VERTEX
  5
2CF
100
AcDbEntity
  8
寸法
370
    -2
  6
ByBlock
 62
     0
100
AcDbVertex
100
AcDb2dVertex
 10
88.708158
 20
-25.283304
 30
0.0
  0
SEQEND
  5
2D0
100
AcDbEntity
  8
寸法
370
    -2
  6
ByBlock
 62
     0
  0
TEXT
  5
2D2
100
AcDbEntity
  8
文字
370
    -2
  6
Continuous
 62
     0
100
AcDbText
 10
38.188382
 20
-24.059761
 30
0.0
 40
5.0
  1
93.09
 41
0.55
  7
TextStyle01
 72
     5
 11
51.938382
 21
-24.059761
 31
0.0
100
AcDbText
  0
ENDBLK
  5
2D3
100
AcDbEntity
  8
0
100
AcDbBlockEnd
  0
BLOCK
  5
2D6
100
AcDbEntity
  8
0
100
AcDbBlockBegin
  2
*G1
 70
     1
 10
0.0
 20
0.0
 30
0.0
  3
*G1
  1

  0
LINE
  5
2D7
100
AcDbEntity
  8
寸法
370
    -2
  6
ByBlock
 62
     0
100
AcDbLine
 10
85.286786
 20
38.355133
 30
0.0
 11
123.393169
 21
38.355133
 31
0.0
  0
LINE
  5
2D8
100
AcDbEntity
  8
寸法
370
    -2
  6
ByBlock
 62
     0
100
AcDbLine
 10
87.148488
 20
-2.974654
 30
0.0
 11
123.393169
 21
-2.974654
 31
0.0
  0
LINE
  5
2D9
100
AcDbEntity
  8
寸法
370
    -2
  6
ByBlock
 62
     0
100
AcDbLine
 10
121.393169
 20
38.355133
 30
0.0
 11
121.393169
 21
-2.974654
 31
0.0
  0
POLYLINE
  5
2DA
100
AcDbEntity
  8
寸法
370
    -2
  6
ByBlock
 62
     0
100
AcDb2dPolyline
 66
     1
 10
0.0
 20
0.0
 30
0.0
  0
VERTEX
  5
2DC
100
AcDbEntity
  8
寸法
370
    -2
  6
ByBlock
 62
     0
100
AcDbVertex
100
AcDb2dVertex
 10
122.169626
 20
35.457355
 30
0.0
  0
VERTEX
  5
2DD
100
AcDbEntity
  8
寸法
370
    -2
  6
ByBlock
 62
     0
100
AcDbVertex
100
AcDb2dVertex
 10
121.393169
 20
38.355133
 30
0.0
  0
VERTEX
  5
2DE
100
AcDbEntity
  8
寸法
370
    -2
  6
ByBlock
 62
     0
100
AcDbVertex
100
AcDb2dVertex
 10
120.616712
 20
35.457355
 30
0.0
  0
SEQEND
  5
2DF
100
AcDbEntity
  8
寸法
370
    -2
  6
ByBlock
 62
     0
  0
POLYLINE
  5
2E0
100
AcDbEntity
  8
寸法
370
    -2
  6
ByBlock
 62
     0
100
AcDb2dPolyline
 66
     1
 10
0.0
 20
0.0
 30
0.0
  0
VERTEX
  5
2E2
100
AcDbEntity
  8
寸法
370
    -2
  6
ByBlock
 62
     0
100
AcDbVertex
100
AcDb2dVertex
 10
120.616712
 20
-0.076877
 30
0.0
  0
VERTEX
  5
2E3
100
AcDbEntity
  8
寸法
370
    -2
  6
ByBlock
 62
     0
100
AcDbVertex
100
AcDb2dVertex
 10
121.393169
 20
-2.974654
 30
0.0
  0
VERTEX
  5
2E4
100
AcDbEntity
  8
寸法
370
    -2
  6
ByBlock
 62
     0
100
AcDbVertex
100
AcDb2dVertex
 10
122.169626
 20
-0.076877
 30
0.0
  0
SEQEND
  5
2E5
100
AcDbEntity
  8
寸法
370
    -2
  6
ByBlock
 62
     0
  0
TEXT
  5
2E6
100
AcDbEntity
  8
文字
370
    -2
  6
Continuous
 62
     0
100
AcDbText
 10
119.393169
 20
10.815239
 30
0.0
 40
5.0
  1
41.33
 50
90.0
 41
0.55
  7
TextStyle01
 72
     5
 11
119.393169
 21
24.565239
 31
0.0
100
AcDbText
  0
ENDBLK
  5
2E7
100
AcDbEntity
  8
0
100
AcDbBlockEnd
  0
ENDSEC
  0
SECTION
  2
ENTITIES
  0
LINE
  5
4F
100
AcDbEntity
  8
文字
100
AcDbLine
 10
7.249635
 20
19.655
 30
0.0
 11
7.249635
 21
27.740938
 31
0.0
  0
LINE
  5
50
100
AcDbEntity
  8
文字
100
AcDbLine
 10
7.249635
 20
27.740938
 30
0.0
 11
19.554323
 21
27.740938
 31
0.0
  0
LINE
  5
51
100
AcDbEntity
  8
文字
100
AcDbLine
 10
19.554323
 20
27.740938
 30
0.0
 11
19.664792
 21
26.635469
 31
0.0
  0
LINE
  5
52
100
AcDbEntity
  8
文字
100
AcDbLine
 10
19.664792
 20
26.635469
 30
0.0
 11
19.78651
 21
25.501875
 31
0.0
  0
LINE
  5
53
100
AcDbEntity
  8
文字
100
AcDbLine
 10
19.78651
 20
25.501875
 30
0.0
 11
19.921354
 21
24.344844
 31
0.0
  0
LINE
  5
54
100
AcDbEntity
  8
文字
100
AcDbLine
 10
19.921354
 20
24.344844
 30
0.0
 11
20.071198
 21
23.169063
 31
0.0
  0
LINE
  5
55
100
AcDbEntity
  8
文字
100
AcDbLine
 10
20.071198
 20
23.169063
 30
0.0
 11
20.237917
 21
21.979219
 31
0.0
  0
LINE
  5
56
100
AcDbEntity
  8
文字
100
AcDbLine
 10
20.237917
 20
21.979219
 30
0.0
 11
20.423385
 21
20.78
 31
0.0
  0
LINE
  5
57
100
AcDbEntity
  8
文字
100
AcDbLine
 10
20.423385
 20
20.78
 30
0.0
 11
20.629479
 21
19.576094
 31
0.0
  0
LINE
  5
58
100
AcDbEntity
  8
文字
100
AcDbLine
 10
20.629479
 20
19.576094
 30
0.0
 11
20.858073
 21
18.372187
 31
0.0
  0
LINE
  5
59
100
AcDbEntity
  8
文字
100
AcDbLine
 10
20.858073
 20
18.372187
 30
0.0
 11
21.111042
 21
17.172969
 31
0.0
  0
LINE
  5
5A
100
AcDbEntity
  8
文字
100
AcDbLine
 10
21.111042
 20
17.172969
 30
0.0
 11
21.39026
 21
15.983125
 31
0.0
  0
LINE
  5
5B
100
AcDbEntity
  8
文字
100
AcDbLine
 10
21.39026
 20
15.983125
 30
0.0
 11
21.697604
 21
14.807344
 31
0.0
  0
LINE
  5
5C
100
AcDbEntity
  8
文字
100
AcDbLine
 10
21.697604
 20
14.807344
 30
0.0
 11
22.034948
 21
13.650312
 31
0.0
  0
LINE
  5
5D
100
AcDbEntity
  8
文字
100
AcDbLine
 10
22.034948
 20
13.650312
 30
0.0
 11
22.404167
 21
12.516719
 31
0.0
  0
LINE
  5
5E
100
AcDbEntity
  8
文字
100
AcDbLine
 10
22.404167
 20
12.516719
 30
0.0
 11
22.807135
 21
11.41125
 31
0.0
  0
LINE
  5
5F
100
AcDbEntity
  8
文字
100
AcDbLine
 10
22.807135
 20
11.41125
 30
0.0
 11
23.245729
 21
10.338594
 31
0.0
  0
LINE
  5
60
100
AcDbEntity
  8
文字
100
AcDbLine
 10
23.245729
 20
10.338594
 30
0.0
 11
22.785208
 21
9.639375
 31
0.0
  0
LINE
  5
61
100
AcDbEntity
  8
文字
100
AcDbLine
 10
22.785208
 20
9.639375
 30
0.0
 11
22.252187
 21
8.883906
 31
0.0
  0
LINE
  5
62
100
AcDbEntity
  8
文字
100
AcDbLine
 10
22.252187
 20
8.883906
 30
0.0
 11
21.653854
 21
8.081563
 31
0.0
  0
LINE
  5
63
100
AcDbEntity
  8
文字
100
AcDbLine
 10
21.653854
 20
8.081563
 30
0.0
 11
20.997396
 21
7.241719
 31
0.0
  0
LINE
  5
64
100
AcDbEntity
  8
文字
100
AcDbLine
 10
20.997396
 20
7.241719
 30
0.0
 11
20.29
 21
6.37375
 31
0.0
  0
LINE
  5
65
100
AcDbEntity
  8
文字
100
AcDbLine
 10
20.29
 20
6.37375
 30
0.0
 11
19.538854
 21
5.487031
 31
0.0
  0
LINE
  5
66
100
AcDbEntity
  8
文字
100
AcDbLine
 10
19.538854
 20
5.487031
 30
0.0
 11
18.751146
 21
4.590938
 31
0.0
  0
LINE
  5
67
100
AcDbEntity
  8
文字
100
AcDbLine
 10
18.751146
 20
4.590938
 30
0.0
 11
17.934063
 21
3.694844
 31
0.0
  0
LINE
  5
68
100
AcDbEntity
  8
文字
100
AcDbLine
 10
17.934063
 20
3.694844
 30
0.0
 11
17.094792
 21
2.808125
 31
0.0
  0
LINE
  5
69
100
AcDbEntity
  8
文字
100
AcDbLine
 10
17.094792
 20
2.808125
 30
0.0
 11
16.240521
 21
1.940156
 31
0.0
  0
LINE
  5
6A
100
AcDbEntity
  8
文字
100
AcDbLine
 10
16.240521
 20
1.940156
 30
0.0
 11
15.378438
 21
1.100313
 31
0.0
  0
LINE
  5
6B
100
AcDbEntity
  8
文字
100
AcDbLine
 10
15.378438
 20
1.100313
 30
0.0
 11
14.515729
 21
0.297969
 31
0.0
  0
LINE
  5
6C
100
AcDbEntity
  8
文字
100
AcDbLine
 10
14.515729
 20
0.297969
 30
0.0
 11
13.659583
 21
-0.4575
 31
0.0
  0
LINE
  5
6D
100
AcDbEntity
  8
文字
100
AcDbLine
 10
13.659583
 20
-0.4575
 30
0.0
 11
12.817188
 21
-1.156719
 31
0.0
  0
LINE
  5
6E
100
AcDbEntity
  8
文字
100
AcDbLine
 10
12.817188
 20
-1.156719
 30
0.0
 11
11.995729
 21
-1.790312
 31
0.0
  0
LINE
  5
6F
100
AcDbEntity
  8
文字
100
AcDbLine
 10
11.995729
 20
-1.790312
 30
0.0
 11
12.086927
 21
-1.754635
 31
0.0
  0
LINE
  5
70
100
AcDbEntity
  8
文字
100
AcDbLine
 10
12.086927
 20
-1.754635
 30
0.0
 11
12.770573
 21
-1.459844
 31
0.0
  0
LINE
  5
71
100
AcDbEntity
  8
文字
100
AcDbLine
 10
12.770573
 20
-1.459844
 30
0.0
 11
13.332396
 21
-1.194479
 31
0.0
  0
LINE
  5
72
100
AcDbEntity
  8
文字
100
AcDbLine
 10
13.332396
 20
-1.194479
 30
0.0
 11
14.020469
 21
-0.846302
 31
0.0
  0
LINE
  5
73
100
AcDbEntity
  8
文字
100
AcDbLine
 10
14.020469
 20
-0.846302
 30
0.0
 11
14.819479
 21
-0.412187
 31
0.0
  0
LINE
  5
74
100
AcDbEntity
  8
文字
100
AcDbLine
 10
14.819479
 20
-0.412187
 30
0.0
 11
15.714115
 21
0.11099
 31
0.0
  0
LINE
  5
75
100
AcDbEntity
  8
文字
100
AcDbLine
 10
15.714115
 20
0.11099
 30
0.0
 11
16.689062
 21
0.726354
 31
0.0
  0
LINE
  5
76
100
AcDbEntity
  8
文字
100
AcDbLine
 10
16.689062
 20
0.726354
 30
0.0
 11
17.72901
 21
1.437031
 31
0.0
  0
LINE
  5
77
100
AcDbEntity
  8
文字
100
AcDbLine
 10
17.72901
 20
1.437031
 30
0.0
 11
18.818646
 21
2.246146
 31
0.0
  0
LINE
  5
78
100
AcDbEntity
  8
文字
100
AcDbLine
 10
18.818646
 20
2.246146
 30
0.0
 11
19.942656
 21
3.156823
 31
0.0
  0
LINE
  5
79
100
AcDbEntity
  8
文字
100
AcDbLine
 10
19.942656
 20
3.156823
 30
0.0
 11
21.085729
 21
4.172188
 31
0.0
  0
LINE
  5
7A
100
AcDbEntity
  8
文字
100
AcDbLine
 10
21.085729
 20
4.172188
 30
0.0
 11
22.232552
 21
5.295365
 31
0.0
  0
LINE
  5
7B
100
AcDbEntity
  8
文字
100
AcDbLine
 10
22.232552
 20
5.295365
 30
0.0
 11
23.367813
 21
6.529479
 31
0.0
  0
LINE
  5
7C
100
AcDbEntity
  8
文字
100
AcDbLine
 10
23.367813
 20
6.529479
 30
0.0
 11
24.476198
 21
7.877656
 31
0.0
  0
LINE
  5
7D
100
AcDbEntity
  8
文字
100
AcDbLine
 10
24.476198
 20
7.877656
 30
0.0
 11
24.960625
 21
7.043594
 31
0.0
  0
LINE
  5
7E
100
AcDbEntity
  8
文字
100
AcDbLine
 10
24.960625
 20
7.043594
 30
0.0
 11
25.496927
 21
6.230156
 31
0.0
  0
LINE
  5
7F
100
AcDbEntity
  8
文字
100
AcDbLine
 10
25.496927
 20
6.230156
 30
0.0
 11
26.080729
 21
5.439219
 31
0.0
  0
LINE
  5
80
100
AcDbEntity
  8
文字
100
AcDbLine
 10
26.080729
 20
5.439219
 30
0.0
 11
26.707656
 21
4.672656
 31
0.0
  0
LINE
  5
81
100
AcDbEntity
  8
文字
100
AcDbLine
 10
26.707656
 20
4.672656
 30
0.0
 11
27.373333
 21
3.932344
 31
0.0
  0
LINE
  5
82
100
AcDbEntity
  8
文字
100
AcDbLine
 10
27.373333
 20
3.932344
 30
0.0
 11
28.073385
 21
3.220156
 31
0.0
  0
LINE
  5
83
100
AcDbEntity
  8
文字
100
AcDbLine
 10
28.073385
 20
3.220156
 30
0.0
 11
28.803437
 21
2.537969
 31
0.0
  0
LINE
  5
84
100
AcDbEntity
  8
文字
100
AcDbLine
 10
28.803437
 20
2.537969
 30
0.0
 11
29.559115
 21
1.887656
 31
0.0
  0
LINE
  5
85
100
AcDbEntity
  8
文字
100
AcDbLine
 10
29.559115
 20
1.887656
 30
0.0
 11
30.336042
 21
1.271094
 31
0.0
  0
LINE
  5
86
100
AcDbEntity
  8
文字
100
AcDbLine
 10
30.336042
 20
1.271094
 30
0.0
 11
31.129844
 21
0.690156
 31
0.0
  0
LINE
  5
87
100
AcDbEntity
  8
文字
100
AcDbLine
 10
31.129844
 20
0.690156
 30
0.0
 11
31.936146
 21
0.146719
 31
0.0
  0
LINE
  5
88
100
AcDbEntity
  8
文字
100
AcDbLine
 10
31.936146
 20
0.146719
 30
0.0
 11
32.750573
 21
-0.357344
 31
0.0
  0
LINE
  5
89
100
AcDbEntity
  8
文字
100
AcDbLine
 10
32.750573
 20
-0.357344
 30
0.0
 11
33.56875
 21
-0.820156
 31
0.0
  0
LINE
  5
8A
100
AcDbEntity
  8
文字
100
AcDbLine
 10
33.56875
 20
-0.820156
 30
0.0
 11
34.386302
 21
-1.239844
 31
0.0
  0
LINE
  5
8B
100
AcDbEntity
  8
文字
100
AcDbLine
 10
34.386302
 20
-1.239844
 30
0.0
 11
35.198854
 21
-1.614531
 31
0.0
  0
LINE
  5
8C
100
AcDbEntity
  8
文字
100
AcDbLine
 10
35.198854
 20
-1.614531
 30
0.0
 11
35.985104
 21
-1.93776
 31
0.0
  0
LINE
  5
8D
100
AcDbEntity
  8
文字
100
AcDbLine
 10
35.985104
 20
-1.93776
 30
0.0
 11
36.660729
 21
-2.142552
 31
0.0
  0
LINE
  5
8E
100
AcDbEntity
  8
文字
100
AcDbLine
 10
36.660729
 20
-2.142552
 30
0.0
 11
37.232292
 21
-2.241719
 31
0.0
  0
LINE
  5
8F
100
AcDbEntity
  8
文字
100
AcDbLine
 10
37.232292
 20
-2.241719
 30
0.0
 11
37.706354
 21
-2.248073
 31
0.0
  0
LINE
  5
90
100
AcDbEntity
  8
文字
100
AcDbLine
 10
37.706354
 20
-2.248073
 30
0.0
 11
38.089479
 21
-2.174427
 31
0.0
  0
LINE
  5
91
100
AcDbEntity
  8
文字
100
AcDbLine
 10
38.089479
 20
-2.174427
 30
0.0
 11
38.388229
 21
-2.033594
 31
0.0
  0
LINE
  5
92
100
AcDbEntity
  8
文字
100
AcDbLine
 10
38.388229
 20
-2.033594
 30
0.0
 11
38.758854
 21
-1.601615
 31
0.0
  0
LINE
  5
93
100
AcDbEntity
  8
文字
100
AcDbLine
 10
38.758854
 20
-1.601615
 30
0.0
 11
38.843854
 21
-1.336094
 31
0.0
  0
LINE
  5
94
100
AcDbEntity
  8
文字
100
AcDbLine
 10
38.843854
 20
-1.336094
 30
0.0
 11
38.846042
 21
-0.770052
 31
0.0
  0
LINE
  5
95
100
AcDbEntity
  8
文字
100
AcDbLine
 10
38.846042
 20
-0.770052
 30
0.0
 11
38.776354
 21
-0.495156
 31
0.0
  0
LINE
  5
96
100
AcDbEntity
  8
文字
100
AcDbLine
 10
38.776354
 20
-0.495156
 30
0.0
 11
38.528229
 21
-0.025677
 31
0.0
  0
LINE
  5
97
100
AcDbEntity
  8
文字
100
AcDbLine
 10
38.528229
 20
-0.025677
 30
0.0
 11
38.362917
 21
0.143281
 31
0.0
  0
LINE
  5
98
100
AcDbEntity
  8
文字
100
AcDbLine
 10
38.362917
 20
0.143281
 30
0.0
 11
38.165729
 21
0.279479
 31
0.0
  0
LINE
  5
99
100
AcDbEntity
  8
文字
100
AcDbLine
 10
38.165729
 20
0.279479
 30
0.0
 11
37.724167
 21
0.647448
 31
0.0
  0
LINE
  5
9A
100
AcDbEntity
  8
文字
100
AcDbLine
 10
37.724167
 20
0.647448
 30
0.0
 11
37.620729
 21
0.761771
 31
0.0
  0
LINE
  5
9B
100
AcDbEntity
  8
文字
100
AcDbLine
 10
37.620729
 20
0.761771
 30
0.0
 11
37.375729
 21
1.219063
 31
0.0
  0
LINE
  5
9C
100
AcDbEntity
  8
文字
100
AcDbLine
 10
37.375729
 20
1.219063
 30
0.0
 11
37.328229
 21
1.469583
 31
0.0
  0
LINE
  5
9D
100
AcDbEntity
  8
文字
100
AcDbLine
 10
37.328229
 20
1.469583
 30
0.0
 11
37.308542
 21
1.907865
 31
0.0
  0
LINE
  5
9E
100
AcDbEntity
  8
文字
100
AcDbLine
 10
37.308542
 20
1.907865
 30
0.0
 11
37.308229
 21
2.076875
 31
0.0
  0
LINE
  5
9F
100
AcDbEntity
  8
文字
100
AcDbLine
 10
37.308229
 20
2.076875
 30
0.0
 11
37.308229
 21
10.865938
 31
0.0
  0
LINE
  5
A0
100
AcDbEntity
  8
文字
100
AcDbLine
 10
37.308229
 20
10.865938
 30
0.0
 11
35.374635
 21
4.010469
 31
0.0
  0
LINE
  5
A1
100
AcDbEntity
  8
文字
100
AcDbLine
 10
35.374635
 20
4.010469
 30
0.0
 11
35.299583
 21
3.780625
 31
0.0
  0
LINE
  5
A2
100
AcDbEntity
  8
文字
100
AcDbLine
 10
35.299583
 20
3.780625
 30
0.0
 11
35.015052
 21
3.278594
 31
0.0
  0
LINE
  5
A3
100
AcDbEntity
  8
文字
100
AcDbLine
 10
35.015052
 20
3.278594
 30
0.0
 11
34.899375
 21
3.170625
 31
0.0
  0
LINE
  5
A4
100
AcDbEntity
  8
文字
100
AcDbLine
 10
34.899375
 20
3.170625
 30
0.0
 11
34.324167
 21
3.010625
 31
0.0
  0
LINE
  5
A5
100
AcDbEntity
  8
文字
100
AcDbLine
 10
34.324167
 20
3.010625
 30
0.0
 11
34.150677
 21
3.033906
 31
0.0
  0
LINE
  5
A6
100
AcDbEntity
  8
文字
100
AcDbLine
 10
34.150677
 20
3.033906
 30
0.0
 11
33.553958
 21
3.240625
 31
0.0
  0
LINE
  5
A7
100
AcDbEntity
  8
文字
100
AcDbLine
 10
33.553958
 20
3.240625
 30
0.0
 11
33.328594
 21
3.352031
 31
0.0
  0
LINE
  5
A8
100
AcDbEntity
  8
文字
100
AcDbLine
 10
33.328594
 20
3.352031
 30
0.0
 11
33.089479
 21
3.483125
 31
0.0
  0
LINE
  5
A9
100
AcDbEntity
  8
文字
100
AcDbLine
 10
33.089479
 20
3.483125
 30
0.0
 11
32.597656
 21
3.883438
 31
0.0
  0
LINE
  5
AA
100
AcDbEntity
  8
文字
100
AcDbLine
 10
32.597656
 20
3.883438
 30
0.0
 11
32.108021
 21
4.309063
 31
0.0
  0
LINE
  5
AB
100
AcDbEntity
  8
文字
100
AcDbLine
 10
32.108021
 20
4.309063
 30
0.0
 11
31.62276
 21
4.757188
 31
0.0
  0
LINE
  5
AC
100
AcDbEntity
  8
文字
100
AcDbLine
 10
31.62276
 20
4.757188
 30
0.0
 11
31.144062
 21
5.225
 31
0.0
  0
LINE
  5
AD
100
AcDbEntity
  8
文字
100
AcDbLine
 10
31.144062
 20
5.225
 30
0.0
 11
30.674115
 21
5.709688
 31
0.0
  0
LINE
  5
AE
100
AcDbEntity
  8
文字
100
AcDbLine
 10
30.674115
 20
5.709688
 30
0.0
 11
30.215104
 21
6.208438
 31
0.0
  0
LINE
  5
AF
100
AcDbEntity
  8
文字
100
AcDbLine
 10
30.215104
 20
6.208438
 30
0.0
 11
29.769219
 21
6.718438
 31
0.0
  0
LINE
  5
B0
100
AcDbEntity
  8
文字
100
AcDbLine
 10
29.769219
 20
6.718438
 30
0.0
 11
29.338646
 21
7.236875
 31
0.0
  0
LINE
  5
B1
100
AcDbEntity
  8
文字
100
AcDbLine
 10
29.338646
 20
7.236875
 30
0.0
 11
28.925573
 21
7.760938
 31
0.0
  0
LINE
  5
B2
100
AcDbEntity
  8
文字
100
AcDbLine
 10
28.925573
 20
7.760938
 30
0.0
 11
28.532187
 21
8.287813
 31
0.0
  0
LINE
  5
B3
100
AcDbEntity
  8
文字
100
AcDbLine
 10
28.532187
 20
8.287813
 30
0.0
 11
28.160677
 21
8.814688
 31
0.0
  0
LINE
  5
B4
100
AcDbEntity
  8
文字
100
AcDbLine
 10
28.160677
 20
8.814688
 30
0.0
 11
27.813229
 21
9.33875
 31
0.0
  0
LINE
  5
B5
100
AcDbEntity
  8
文字
100
AcDbLine
 10
27.813229
 20
9.33875
 30
0.0
 11
27.492031
 21
9.857188
 31
0.0
  0
LINE
  5
B6
100
AcDbEntity
  8
文字
100
AcDbLine
 10
27.492031
 20
9.857188
 30
0.0
 11
27.199271
 21
10.367188
 31
0.0
  0
LINE
  5
B7
100
AcDbEntity
  8
文字
100
AcDbLine
 10
27.199271
 20
10.367188
 30
0.0
 11
26.937135
 21
10.865938
 31
0.0
  0
LINE
  5
B8
100
AcDbEntity
  8
文字
100
AcDbLine
 10
26.937135
 20
10.865938
 30
0.0
 11
27.168594
 21
11.14651
 31
0.0
  0
LINE
  5
B9
100
AcDbEntity
  8
文字
100
AcDbLine
 10
27.168594
 20
11.14651
 30
0.0
 11
27.438802
 21
11.493333
 31
0.0
  0
LINE
  5
BA
100
AcDbEntity
  8
文字
100
AcDbLine
 10
27.438802
 20
11.493333
 30
0.0
 11
27.744323
 21
11.902344
 31
0.0
  0
LINE
  5
BB
100
AcDbEntity
  8
文字
100
AcDbLine
 10
27.744323
 20
11.902344
 30
0.0
 11
28.081719
 21
12.369479
 31
0.0
  0
LINE
  5
BC
100
AcDbEntity
  8
文字
100
AcDbLine
 10
28.081719
 20
12.369479
 30
0.0
 11
28.447552
 21
12.890677
 31
0.0
  0
LINE
  5
BD
100
AcDbEntity
  8
文字
100
AcDbLine
 10
28.447552
 20
12.890677
 30
0.0
 11
28.838385
 21
13.461875
 31
0.0
  0
LINE
  5
BE
100
AcDbEntity
  8
文字
100
AcDbLine
 10
28.838385
 20
13.461875
 30
0.0
 11
29.250781
 21
14.07901
 31
0.0
  0
LINE
  5
BF
100
AcDbEntity
  8
文字
100
AcDbLine
 10
29.250781
 20
14.07901
 30
0.0
 11
29.681302
 21
14.738021
 31
0.0
  0
LINE
  5
C0
100
AcDbEntity
  8
文字
100
AcDbLine
 10
29.681302
 20
14.738021
 30
0.0
 11
30.12651
 21
15.434844
 31
0.0
  0
LINE
  5
C1
100
AcDbEntity
  8
文字
100
AcDbLine
 10
30.12651
 20
15.434844
 30
0.0
 11
30.582969
 21
16.165417
 31
0.0
  0
LINE
  5
C2
100
AcDbEntity
  8
文字
100
AcDbLine
 10
30.582969
 20
16.165417
 30
0.0
 11
31.04724
 21
16.925677
 31
0.0
  0
LINE
  5
C3
100
AcDbEntity
  8
文字
100
AcDbLine
 10
31.04724
 20
16.925677
 30
0.0
 11
31.515885
 21
17.711563
 31
0.0
  0
LINE
  5
C4
100
AcDbEntity
  8
文字
100
AcDbLine
 10
31.515885
 20
17.711563
 30
0.0
 11
31.985469
 21
18.51901
 31
0.0
  0
LINE
  5
C5
100
AcDbEntity
  8
文字
100
AcDbLine
 10
31.985469
 20
18.51901
 30
0.0
 11
32.452552
 21
19.343958
 31
0.0
  0
LINE
  5
C6
100
AcDbEntity
  8
文字
100
AcDbLine
 10
32.452552
 20
19.343958
 30
0.0
 11
32.913698
 21
20.182344
 31
0.0
  0
LINE
  5
C7
100
AcDbEntity
  8
文字
100
AcDbLine
 10
32.913698
 20
20.182344
 30
0.0
 11
33.218073
 21
20.195938
 31
0.0
  0
LINE
  5
C8
100
AcDbEntity
  8
文字
100
AcDbLine
 10
33.218073
 20
20.195938
 30
0.0
 11
33.74901
 21
20.29625
 31
0.0
  0
LINE
  5
C9
100
AcDbEntity
  8
文字
100
AcDbLine
 10
33.74901
 20
20.29625
 30
0.0
 11
33.971823
 21
20.377344
 31
0.0
  0
LINE
  5
CA
100
AcDbEntity
  8
文字
100
AcDbLine
 10
33.971823
 20
20.377344
 30
0.0
 11
34.447135
 21
20.710625
 31
0.0
  0
LINE
  5
CB
100
AcDbEntity
  8
文字
100
AcDbLine
 10
34.447135
 20
20.710625
 30
0.0
 11
34.534948
 21
20.842344
 31
0.0
  0
LINE
  5
CC
100
AcDbEntity
  8
文字
100
AcDbLine
 10
34.534948
 20
20.842344
 30
0.0
 11
34.483073
 21
21.397344
 31
0.0
  0
LINE
  5
CD
100
AcDbEntity
  8
文字
100
AcDbLine
 10
34.483073
 20
21.397344
 30
0.0
 11
34.359948
 21
21.529063
 31
0.0
  0
LINE
  5
CE
100
AcDbEntity
  8
文字
100
AcDbLine
 10
34.359948
 20
21.529063
 30
0.0
 11
33.968385
 21
21.764375
 31
0.0
  0
LINE
  5
CF
100
AcDbEntity
  8
文字
100
AcDbLine
 10
33.968385
 20
21.764375
 30
0.0
 11
30.101198
 21
22.994844
 31
0.0
  0
LINE
  5
D0
100
AcDbEntity
  8
文字
100
AcDbLine
 10
30.101198
 20
22.994844
 30
0.0
 11
29.806719
 21
22.18276
 31
0.0
  0
LINE
  5
D1
100
AcDbEntity
  8
文字
100
AcDbLine
 10
29.806719
 20
22.18276
 30
0.0
 11
29.489115
 21
21.36849
 31
0.0
  0
LINE
  5
D2
100
AcDbEntity
  8
文字
100
AcDbLine
 10
29.489115
 20
21.36849
 30
0.0
 11
29.153385
 21
20.559219
 31
0.0
  0
LINE
  5
D3
100
AcDbEntity
  8
文字
100
AcDbLine
 10
29.153385
 20
20.559219
 30
0.0
 11
28.804531
 21
19.762135
 31
0.0
  0
LINE
  5
D4
100
AcDbEntity
  8
文字
100
AcDbLine
 10
28.804531
 20
19.762135
 30
0.0
 11
28.447552
 21
18.984427
 31
0.0
  0
LINE
  5
D5
100
AcDbEntity
  8
文字
100
AcDbLine
 10
28.447552
 20
18.984427
 30
0.0
 11
28.087448
 21
18.233281
 31
0.0
  0
LINE
  5
D6
100
AcDbEntity
  8
文字
100
AcDbLine
 10
28.087448
 20
18.233281
 30
0.0
 11
27.729219
 21
17.515885
 31
0.0
  0
LINE
  5
D7
100
AcDbEntity
  8
文字
100
AcDbLine
 10
27.729219
 20
17.515885
 30
0.0
 11
27.377865
 21
16.839427
 31
0.0
  0
LINE
  5
D8
100
AcDbEntity
  8
文字
100
AcDbLine
 10
27.377865
 20
16.839427
 30
0.0
 11
27.038385
 21
16.211094
 31
0.0
  0
LINE
  5
D9
100
AcDbEntity
  8
文字
100
AcDbLine
 10
27.038385
 20
16.211094
 30
0.0
 11
26.715781
 21
15.638073
 31
0.0
  0
LINE
  5
DA
100
AcDbEntity
  8
文字
100
AcDbLine
 10
26.715781
 20
15.638073
 30
0.0
 11
26.415052
 21
15.127552
 31
0.0
  0
LINE
  5
DB
100
AcDbEntity
  8
文字
100
AcDbLine
 10
26.415052
 20
15.127552
 30
0.0
 11
26.141198
 21
14.686719
 31
0.0
  0
LINE
  5
DC
100
AcDbEntity
  8
文字
100
AcDbLine
 10
26.141198
 20
14.686719
 30
0.0
 11
25.899219
 21
14.32276
 31
0.0
  0
LINE
  5
DD
100
AcDbEntity
  8
文字
100
AcDbLine
 10
25.899219
 20
14.32276
 30
0.0
 11
25.694115
 21
14.042865
 31
0.0
  0
LINE
  5
DE
100
AcDbEntity
  8
文字
100
AcDbLine
 10
25.694115
 20
14.042865
 30
0.0
 11
25.530885
 21
13.854219
 31
0.0
  0
LINE
  5
DF
100
AcDbEntity
  8
文字
100
AcDbLine
 10
25.530885
 20
13.854219
 30
0.0
 11
25.195469
 21
14.790208
 31
0.0
  0
LINE
  5
E0
100
AcDbEntity
  8
文字
100
AcDbLine
 10
25.195469
 20
14.790208
 30
0.0
 11
24.891302
 21
15.76401
 31
0.0
  0
LINE
  5
E1
100
AcDbEntity
  8
文字
100
AcDbLine
 10
24.891302
 20
15.76401
 30
0.0
 11
24.616823
 21
16.766562
 31
0.0
  0
LINE
  5
E2
100
AcDbEntity
  8
文字
100
AcDbLine
 10
24.616823
 20
16.766562
 30
0.0
 11
24.370469
 21
17.788802
 31
0.0
  0
LINE
  5
E3
100
AcDbEntity
  8
文字
100
AcDbLine
 10
24.370469
 20
17.788802
 30
0.0
 11
24.150677
 21
18.821667
 31
0.0
  0
LINE
  5
E4
100
AcDbEntity
  8
文字
100
AcDbLine
 10
24.150677
 20
18.821667
 30
0.0
 11
23.955885
 21
19.856094
 31
0.0
  0
LINE
  5
E5
100
AcDbEntity
  8
文字
100
AcDbLine
 10
23.955885
 20
19.856094
 30
0.0
 11
23.784531
 21
20.883021
 31
0.0
  0
LINE
  5
E6
100
AcDbEntity
  8
文字
100
AcDbLine
 10
23.784531
 20
20.883021
 30
0.0
 11
23.635052
 21
21.893385
 31
0.0
  0
LINE
  5
E7
100
AcDbEntity
  8
文字
100
AcDbLine
 10
23.635052
 20
21.893385
 30
0.0
 11
23.505885
 21
22.878125
 31
0.0
  0
LINE
  5
E8
100
AcDbEntity
  8
文字
100
AcDbLine
 10
23.505885
 20
22.878125
 30
0.0
 11
23.395469
 21
23.828177
 31
0.0
  0
LINE
  5
E9
100
AcDbEntity
  8
文字
100
AcDbLine
 10
23.395469
 20
23.828177
 30
0.0
 11
23.30224
 21
24.734479
 31
0.0
  0
LINE
  5
EA
100
AcDbEntity
  8
文字
100
AcDbLine
 10
23.30224
 20
24.734479
 30
0.0
 11
23.224635
 21
25.587969
 31
0.0
  0
LINE
  5
EB
100
AcDbEntity
  8
文字
100
AcDbLine
 10
23.224635
 20
25.587969
 30
0.0
 11
23.161094
 21
26.379583
 31
0.0
  0
LINE
  5
EC
100
AcDbEntity
  8
文字
100
AcDbLine
 10
23.161094
 20
26.379583
 30
0.0
 11
23.110052
 21
27.10026
 31
0.0
  0
LINE
  5
ED
100
AcDbEntity
  8
文字
100
AcDbLine
 10
23.110052
 20
27.10026
 30
0.0
 11
23.069948
 21
27.740938
 31
0.0
  0
LINE
  5
EE
100
AcDbEntity
  8
文字
100
AcDbLine
 10
23.069948
 20
27.740938
 30
0.0
 11
36.605104
 21
27.740938
 31
0.0
  0
LINE
  5
EF
100
AcDbEntity
  8
文字
100
AcDbLine
 10
36.605104
 20
27.740938
 30
0.0
 11
36.773646
 21
27.750104
 31
0.0
  0
LINE
  5
F0
100
AcDbEntity
  8
文字
100
AcDbLine
 10
36.773646
 20
27.750104
 30
0.0
 11
37.282187
 21
27.949271
 31
0.0
  0
LINE
  5
F1
100
AcDbEntity
  8
文字
100
AcDbLine
 10
37.282187
 20
27.949271
 30
0.0
 11
37.419583
 21
28.128854
 31
0.0
  0
LINE
  5
F2
100
AcDbEntity
  8
文字
100
AcDbLine
 10
37.419583
 20
28.128854
 30
0.0
 11
37.410625
 21
28.598021
 31
0.0
  0
LINE
  5
F3
100
AcDbEntity
  8
文字
100
AcDbLine
 10
37.410625
 20
28.598021
 30
0.0
 11
37.244271
 21
28.867604
 31
0.0
  0
LINE
  5
F4
100
AcDbEntity
  8
文字
100
AcDbLine
 10
37.244271
 20
28.867604
 30
0.0
 11
36.956667
 21
29.147188
 31
0.0
  0
LINE
  5
F5
100
AcDbEntity
  8
文字
100
AcDbLine
 10
36.956667
 20
29.147188
 30
0.0
 11
33.968385
 21
31.256563
 31
0.0
  0
LINE
  5
F6
100
AcDbEntity
  8
文字
100
AcDbLine
 10
33.968385
 20
31.256563
 30
0.0
 11
32.386354
 21
28.971406
 31
0.0
  0
LINE
  5
F7
100
AcDbEntity
  8
文字
100
AcDbLine
 10
32.386354
 20
28.971406
 30
0.0
 11
22.894167
 21
28.971406
 31
0.0
  0
LINE
  5
F8
100
AcDbEntity
  8
文字
100
AcDbLine
 10
22.894167
 20
28.971406
 30
0.0
 11
22.891927
 21
29.288542
 31
0.0
  0
LINE
  5
F9
100
AcDbEntity
  8
文字
100
AcDbLine
 10
22.891927
 20
29.288542
 30
0.0
 11
22.885625
 21
29.67099
 31
0.0
  0
LINE
  5
FA
100
AcDbEntity
  8
文字
100
AcDbLine
 10
22.885625
 20
29.67099
 30
0.0
 11
22.875885
 21
30.109063
 31
0.0
  0
LINE
  5
FB
100
AcDbEntity
  8
文字
100
AcDbLine
 10
22.875885
 20
30.109063
 30
0.0
 11
22.863333
 21
30.593073
 31
0.0
  0
LINE
  5
FC
100
AcDbEntity
  8
文字
100
AcDbLine
 10
22.863333
 20
30.593073
 30
0.0
 11
22.848594
 21
31.113333
 31
0.0
  0
LINE
  5
FD
100
AcDbEntity
  8
文字
100
AcDbLine
 10
22.848594
 20
31.113333
 30
0.0
 11
22.832292
 21
31.660156
 31
0.0
  0
LINE
  5
FE
100
AcDbEntity
  8
文字
100
AcDbLine
 10
22.832292
 20
31.660156
 30
0.0
 11
22.815052
 21
32.223854
 31
0.0
  0
LINE
  5
FF
100
AcDbEntity
  8
文字
100
AcDbLine
 10
22.815052
 20
32.223854
 30
0.0
 11
22.7975
 21
32.79474
 31
0.0
  0
LINE
  5
100
100
AcDbEntity
  8
文字
100
AcDbLine
 10
22.7975
 20
32.79474
 30
0.0
 11
22.78026
 21
33.363125
 31
0.0
  0
LINE
  5
101
100
AcDbEntity
  8
文字
100
AcDbLine
 10
22.78026
 20
33.363125
 30
0.0
 11
22.763958
 21
33.919323
 31
0.0
  0
LINE
  5
102
100
AcDbEntity
  8
文字
100
AcDbLine
 10
22.763958
 20
33.919323
 30
0.0
 11
22.749219
 21
34.453646
 31
0.0
  0
LINE
  5
103
100
AcDbEntity
  8
文字
100
AcDbLine
 10
22.749219
 20
34.453646
 30
0.0
 11
22.736667
 21
34.956406
 31
0.0
  0
LINE
  5
104
100
AcDbEntity
  8
文字
100
AcDbLine
 10
22.736667
 20
34.956406
 30
0.0
 11
22.726927
 21
35.417917
 31
0.0
  0
LINE
  5
105
100
AcDbEntity
  8
文字
100
AcDbLine
 10
22.726927
 20
35.417917
 30
0.0
 11
22.720625
 21
35.82849
 31
0.0
  0
LINE
  5
106
100
AcDbEntity
  8
文字
100
AcDbLine
 10
22.720625
 20
35.82849
 30
0.0
 11
22.718385
 21
36.178438
 31
0.0
  0
LINE
  5
107
100
AcDbEntity
  8
文字
100
AcDbLine
 10
22.718385
 20
36.178438
 30
0.0
 11
22.956875
 21
36.259896
 31
0.0
  0
LINE
  5
108
100
AcDbEntity
  8
文字
100
AcDbLine
 10
22.956875
 20
36.259896
 30
0.0
 11
23.377917
 21
36.479375
 31
0.0
  0
LINE
  5
109
100
AcDbEntity
  8
文字
100
AcDbLine
 10
23.377917
 20
36.479375
 30
0.0
 11
23.553594
 21
36.610521
 31
0.0
  0
LINE
  5
10A
100
AcDbEntity
  8
文字
100
AcDbLine
 10
23.553594
 20
36.610521
 30
0.0
 11
23.9
 21
37.048333
 31
0.0
  0
LINE
  5
10B
100
AcDbEntity
  8
文字
100
AcDbLine
 10
23.9
 20
37.048333
 30
0.0
 11
23.943802
 21
37.197604
 31
0.0
  0
LINE
  5
10C
100
AcDbEntity
  8
文字
100
AcDbLine
 10
23.943802
 20
37.197604
 30
0.0
 11
23.66901
 21
37.719687
 31
0.0
  0
LINE
  5
10D
100
AcDbEntity
  8
文字
100
AcDbLine
 10
23.66901
 20
37.719687
 30
0.0
 11
23.470625
 21
37.814271
 31
0.0
  0
LINE
  5
10E
100
AcDbEntity
  8
文字
100
AcDbLine
 10
23.470625
 20
37.814271
 30
0.0
 11
22.894167
 21
37.93625
 31
0.0
  0
LINE
  5
10F
100
AcDbEntity
  8
文字
100
AcDbLine
 10
22.894167
 20
37.93625
 30
0.0
 11
19.378542
 21
38.112031
 31
0.0
  0
LINE
  5
110
100
AcDbEntity
  8
文字
100
AcDbLine
 10
19.378542
 20
38.112031
 30
0.0
 11
19.378594
 21
37.741823
 31
0.0
  0
LINE
  5
111
100
AcDbEntity
  8
文字
100
AcDbLine
 10
19.378594
 20
37.741823
 30
0.0
 11
19.378958
 21
37.273802
 31
0.0
  0
LINE
  5
112
100
AcDbEntity
  8
文字
100
AcDbLine
 10
19.378958
 20
37.273802
 30
0.0
 11
19.379948
 21
36.722656
 31
0.0
  0
LINE
  5
113
100
AcDbEntity
  8
文字
100
AcDbLine
 10
19.379948
 20
36.722656
 30
0.0
 11
19.381875
 21
36.103073
 31
0.0
  0
LINE
  5
114
100
AcDbEntity
  8
文字
100
AcDbLine
 10
19.381875
 20
36.103073
 30
0.0
 11
19.385052
 21
35.42974
 31
0.0
  0
LINE
  5
115
100
AcDbEntity
  8
文字
100
AcDbLine
 10
19.385052
 20
35.42974
 30
0.0
 11
19.389792
 21
34.717344
 31
0.0
  0
LINE
  5
116
100
AcDbEntity
  8
文字
100
AcDbLine
 10
19.389792
 20
34.717344
 30
0.0
 11
19.396406
 21
33.980573
 31
0.0
  0
LINE
  5
117
100
AcDbEntity
  8
文字
100
AcDbLine
 10
19.396406
 20
33.980573
 30
0.0
 11
19.405208
 21
33.234115
 31
0.0
  0
LINE
  5
118
100
AcDbEntity
  8
文字
100
AcDbLine
 10
19.405208
 20
33.234115
 30
0.0
 11
19.41651
 21
32.492656
 31
0.0
  0
LINE
  5
119
100
AcDbEntity
  8
文字
100
AcDbLine
 10
19.41651
 20
32.492656
 30
0.0
 11
19.430625
 21
31.770885
 31
0.0
  0
LINE
  5
11A
100
AcDbEntity
  8
文字
100
AcDbLine
 10
19.430625
 20
31.770885
 30
0.0
 11
19.447865
 21
31.08349
 31
0.0
  0
LINE
  5
11B
100
AcDbEntity
  8
文字
100
AcDbLine
 10
19.447865
 20
31.08349
 30
0.0
 11
19.468542
 21
30.445156
 31
0.0
  0
LINE
  5
11C
100
AcDbEntity
  8
文字
100
AcDbLine
 10
19.468542
 20
30.445156
 30
0.0
 11
19.492969
 21
29.870573
 31
0.0
  0
LINE
  5
11D
100
AcDbEntity
  8
文字
100
AcDbLine
 10
19.492969
 20
29.870573
 30
0.0
 11
19.521458
 21
29.374427
 31
0.0
  0
LINE
  5
11E
100
AcDbEntity
  8
文字
100
AcDbLine
 10
19.521458
 20
29.374427
 30
0.0
 11
19.554323
 21
28.971406
 31
0.0
  0
LINE
  5
11F
100
AcDbEntity
  8
文字
100
AcDbLine
 10
19.554323
 20
28.971406
 30
0.0
 11
7.601198
 21
28.971406
 31
0.0
  0
LINE
  5
120
100
AcDbEntity
  8
文字
100
AcDbLine
 10
7.601198
 20
28.971406
 30
0.0
 11
3.909792
 21
31.608125
 31
0.0
  0
LINE
  5
121
100
AcDbEntity
  8
文字
100
AcDbLine
 10
3.909792
 20
31.608125
 30
0.0
 11
3.909792
 21
16.139375
 31
0.0
  0
LINE
  5
122
100
AcDbEntity
  8
文字
100
AcDbLine
 10
3.909792
 20
16.139375
 30
0.0
 11
3.884427
 21
14.681875
 31
0.0
  0
LINE
  5
123
100
AcDbEntity
  8
文字
100
AcDbLine
 10
3.884427
 20
14.681875
 30
0.0
 11
3.81
 21
13.26375
 31
0.0
  0
LINE
  5
124
100
AcDbEntity
  8
文字
100
AcDbLine
 10
3.81
 20
13.26375
 30
0.0
 11
3.68901
 21
11.886875
 31
0.0
  0
LINE
  5
125
100
AcDbEntity
  8
文字
100
AcDbLine
 10
3.68901
 20
11.886875
 30
0.0
 11
3.523958
 21
10.553125
 31
0.0
  0
LINE
  5
126
100
AcDbEntity
  8
文字
100
AcDbLine
 10
3.523958
 20
10.553125
 30
0.0
 11
3.317344
 21
9.264375
 31
0.0
  0
LINE
  5
127
100
AcDbEntity
  8
文字
100
AcDbLine
 10
3.317344
 20
9.264375
 30
0.0
 11
3.071667
 21
8.0225
 31
0.0
  0
LINE
  5
128
100
AcDbEntity
  8
文字
100
AcDbLine
 10
3.071667
 20
8.0225
 30
0.0
 11
2.789427
 21
6.829375
 31
0.0
  0
LINE
  5
129
100
AcDbEntity
  8
文字
100
AcDbLine
 10
2.789427
 20
6.829375
 30
0.0
 11
2.473125
 21
5.686875
 31
0.0
  0
LINE
  5
12A
100
AcDbEntity
  8
文字
100
AcDbLine
 10
2.473125
 20
5.686875
 30
0.0
 11
2.12526
 21
4.596875
 31
0.0
  0
LINE
  5
12B
100
AcDbEntity
  8
文字
100
AcDbLine
 10
2.12526
 20
4.596875
 30
0.0
 11
1.748333
 21
3.56125
 31
0.0
  0
LINE
  5
12C
100
AcDbEntity
  8
文字
100
AcDbLine
 10
1.748333
 20
3.56125
 30
0.0
 11
1.344844
 21
2.581875
 31
0.0
  0
LINE
  5
12D
100
AcDbEntity
  8
文字
100
AcDbLine
 10
1.344844
 20
2.581875
 30
0.0
 11
0.917292
 21
1.660625
 31
0.0
  0
LINE
  5
12E
100
AcDbEntity
  8
文字
100
AcDbLine
 10
0.917292
 20
1.660625
 30
0.0
 11
0.468177
 21
0.799375
 31
0.0
  0
LINE
  5
12F
100
AcDbEntity
  8
文字
100
AcDbLine
 10
0.468177
 20
0.799375
 30
0.0
 11
0.0
 21
0.0
 31
0.0
  0
LINE
  5
130
100
AcDbEntity
  8
文字
100
AcDbLine
 10
0.0
 20
0.0
 30
0.0
 11
-0.48474
 21
-0.735625
 31
0.0
  0
LINE
  5
131
100
AcDbEntity
  8
文字
100
AcDbLine
 10
-0.48474
 20
-0.735625
 30
0.0
 11
-0.386198
 21
-0.653385
 31
0.0
  0
LINE
  5
132
100
AcDbEntity
  8
文字
100
AcDbLine
 10
-0.386198
 20
-0.653385
 30
0.0
 11
0.319635
 21
0.008281
 31
0.0
  0
LINE
  5
133
100
AcDbEntity
  8
文字
100
AcDbLine
 10
0.319635
 20
0.008281
 30
0.0
 11
0.871927
 21
0.590208
 31
0.0
  0
LINE
  5
134
100
AcDbEntity
  8
文字
100
AcDbLine
 10
0.871927
 20
0.590208
 30
0.0
 11
1.520469
 21
1.341198
 31
0.0
  0
LINE
  5
135
100
AcDbEntity
  8
文字
100
AcDbLine
 10
1.520469
 20
1.341198
 30
0.0
 11
2.23776
 21
2.2625
 31
0.0
  0
LINE
  5
136
100
AcDbEntity
  8
文字
100
AcDbLine
 10
2.23776
 20
2.2625
 30
0.0
 11
2.996302
 21
3.355365
 31
0.0
  0
LINE
  5
137
100
AcDbEntity
  8
文字
100
AcDbLine
 10
2.996302
 20
3.355365
 30
0.0
 11
3.768594
 21
4.621042
 31
0.0
  0
LINE
  5
138
100
AcDbEntity
  8
文字
100
AcDbLine
 10
3.768594
 20
4.621042
 30
0.0
 11
4.527135
 21
6.060781
 31
0.0
  0
LINE
  5
139
100
AcDbEntity
  8
文字
100
AcDbLine
 10
4.527135
 20
6.060781
 30
0.0
 11
5.244427
 21
7.675833
 31
0.0
  0
LINE
  5
13A
100
AcDbEntity
  8
文字
100
AcDbLine
 10
5.244427
 20
7.675833
 30
0.0
 11
5.892969
 21
9.467448
 31
0.0
  0
LINE
  5
13B
100
AcDbEntity
  8
文字
100
AcDbLine
 10
5.892969
 20
9.467448
 30
0.0
 11
6.44526
 21
11.436875
 31
0.0
  0
LINE
  5
13C
100
AcDbEntity
  8
文字
100
AcDbLine
 10
6.44526
 20
11.436875
 30
0.0
 11
6.873802
 21
13.585365
 31
0.0
  0
LINE
  5
13D
100
AcDbEntity
  8
文字
100
AcDbLine
 10
6.873802
 20
13.585365
 30
0.0
 11
7.151094
 21
15.914167
 31
0.0
  0
LINE
  5
13E
100
AcDbEntity
  8
文字
100
AcDbLine
 10
7.151094
 20
15.914167
 30
0.0
 11
7.249635
 21
18.424531
 31
0.0
  0
LINE
  5
13F
100
AcDbEntity
  8
文字
100
AcDbLine
 10
7.249635
 20
18.424531
 30
0.0
 11
14.456667
 21
18.424531
 31
0.0
  0
LINE
  5
140
100
AcDbEntity
  8
文字
100
AcDbLine
 10
14.456667
 20
18.424531
 30
0.0
 11
14.451875
 21
17.714896
 31
0.0
  0
LINE
  5
141
100
AcDbEntity
  8
文字
100
AcDbLine
 10
14.451875
 20
17.714896
 30
0.0
 11
14.437083
 21
16.994323
 31
0.0
  0
LINE
  5
142
100
AcDbEntity
  8
文字
100
AcDbLine
 10
14.437083
 20
16.994323
 30
0.0
 11
14.411667
 21
16.265938
 31
0.0
  0
LINE
  5
143
100
AcDbEntity
  8
文字
100
AcDbLine
 10
14.411667
 20
16.265938
 30
0.0
 11
14.375
 21
15.532865
 31
0.0
  0
LINE
  5
144
100
AcDbEntity
  8
文字
100
AcDbLine
 10
14.375
 20
15.532865
 30
0.0
 11
14.326458
 21
14.798229
 31
0.0
  0
LINE
  5
145
100
AcDbEntity
  8
文字
100
AcDbLine
 10
14.326458
 20
14.798229
 30
0.0
 11
14.265417
 21
14.065156
 31
0.0
  0
LINE
  5
146
100
AcDbEntity
  8
文字
100
AcDbLine
 10
14.265417
 20
14.065156
 30
0.0
 11
14.19125
 21
13.336771
 31
0.0
  0
LINE
  5
147
100
AcDbEntity
  8
文字
100
AcDbLine
 10
14.19125
 20
13.336771
 30
0.0
 11
14.103333
 21
12.616198
 31
0.0
  0
LINE
  5
148
100
AcDbEntity
  8
文字
100
AcDbLine
 10
14.103333
 20
12.616198
 30
0.0
 11
14.001042
 21
11.906563
 31
0.0
  0
LINE
  5
149
100
AcDbEntity
  8
文字
100
AcDbLine
 10
14.001042
 20
11.906563
 30
0.0
 11
13.88375
 21
11.21099
 31
0.0
  0
LINE
  5
14A
100
AcDbEntity
  8
文字
100
AcDbLine
 10
13.88375
 20
11.21099
 30
0.0
 11
13.750833
 21
10.532604
 31
0.0
  0
LINE
  5
14B
100
AcDbEntity
  8
文字
100
AcDbLine
 10
13.750833
 20
10.532604
 30
0.0
 11
13.601667
 21
9.874531
 31
0.0
  0
LINE
  5
14C
100
AcDbEntity
  8
文字
100
AcDbLine
 10
13.601667
 20
9.874531
 30
0.0
 11
13.435625
 21
9.239896
 31
0.0
  0
LINE
  5
14D
100
AcDbEntity
  8
文字
100
AcDbLine
 10
13.435625
 20
9.239896
 30
0.0
 11
13.252083
 21
8.631823
 31
0.0
  0
LINE
  5
14E
100
AcDbEntity
  8
文字
100
AcDbLine
 10
13.252083
 20
8.631823
 30
0.0
 11
13.050417
 21
8.053438
 31
0.0
  0
LINE
  5
14F
100
AcDbEntity
  8
文字
100
AcDbLine
 10
13.050417
 20
8.053438
 30
0.0
 11
12.977656
 21
7.915313
 31
0.0
  0
LINE
  5
150
100
AcDbEntity
  8
文字
100
AcDbLine
 10
12.977656
 20
7.915313
 30
0.0
 11
12.62724
 21
7.428437
 31
0.0
  0
LINE
  5
151
100
AcDbEntity
  8
文字
100
AcDbLine
 10
12.62724
 20
7.428437
 30
0.0
 11
12.521667
 21
7.327812
 31
0.0
  0
LINE
  5
152
100
AcDbEntity
  8
文字
100
AcDbLine
 10
12.521667
 20
7.327812
 30
0.0
 11
12.00875
 21
7.037812
 31
0.0
  0
LINE
  5
153
100
AcDbEntity
  8
文字
100
AcDbLine
 10
12.00875
 20
7.037812
 30
0.0
 11
11.85474
 21
6.998125
 31
0.0
  0
LINE
  5
154
100
AcDbEntity
  8
文字
100
AcDbLine
 10
11.85474
 20
6.998125
 30
0.0
 11
11.320833
 21
6.972812
 31
0.0
  0
LINE
  5
155
100
AcDbEntity
  8
文字
100
AcDbLine
 10
11.320833
 20
6.972812
 30
0.0
 11
11.116823
 21
6.99875
 31
0.0
  0
LINE
  5
156
100
AcDbEntity
  8
文字
100
AcDbLine
 10
11.116823
 20
6.99875
 30
0.0
 11
6.194948
 21
7.526094
 31
0.0
  0
LINE
  5
157
100
AcDbEntity
  8
文字
100
AcDbLine
 10
6.194948
 20
7.526094
 30
0.0
 11
7.21599
 21
7.185885
 31
0.0
  0
LINE
  5
158
100
AcDbEntity
  8
文字
100
AcDbLine
 10
7.21599
 20
7.185885
 30
0.0
 11
8.105469
 21
6.866927
 31
0.0
  0
LINE
  5
159
100
AcDbEntity
  8
文字
100
AcDbLine
 10
8.105469
 20
6.866927
 30
0.0
 11
8.872448
 21
6.567031
 31
0.0
  0
LINE
  5
15A
100
AcDbEntity
  8
文字
100
AcDbLine
 10
8.872448
 20
6.567031
 30
0.0
 11
9.52599
 21
6.28401
 31
0.0
  0
LINE
  5
15B
100
AcDbEntity
  8
文字
100
AcDbLine
 10
9.52599
 20
6.28401
 30
0.0
 11
10.075156
 21
6.015677
 31
0.0
  0
LINE
  5
15C
100
AcDbEntity
  8
文字
100
AcDbLine
 10
10.075156
 20
6.015677
 30
0.0
 11
10.52901
 21
5.759844
 31
0.0
  0
LINE
  5
15D
100
AcDbEntity
  8
文字
100
AcDbLine
 10
10.52901
 20
5.759844
 30
0.0
 11
10.896615
 21
5.514323
 31
0.0
  0
LINE
  5
15E
100
AcDbEntity
  8
文字
100
AcDbLine
 10
10.896615
 20
5.514323
 30
0.0
 11
11.187031
 21
5.276927
 31
0.0
  0
LINE
  5
15F
100
AcDbEntity
  8
文字
100
AcDbLine
 10
11.187031
 20
5.276927
 30
0.0
 11
11.409323
 21
5.045469
 31
0.0
  0
LINE
  5
160
100
AcDbEntity
  8
文字
100
AcDbLine
 10
11.409323
 20
5.045469
 30
0.0
 11
11.685781
 21
4.591615
 31
0.0
  0
LINE
  5
161
100
AcDbEntity
  8
文字
100
AcDbLine
 10
11.685781
 20
4.591615
 30
0.0
 11
11.758073
 21
4.364844
 31
0.0
  0
LINE
  5
162
100
AcDbEntity
  8
文字
100
AcDbLine
 10
11.758073
 20
4.364844
 30
0.0
 11
11.816094
 21
3.900677
 31
0.0
  0
LINE
  5
163
100
AcDbEntity
  8
文字
100
AcDbLine
 10
11.816094
 20
3.900677
 30
0.0
 11
11.819948
 21
3.658906
 31
0.0
  0
LINE
  5
164
100
AcDbEntity
  8
文字
100
AcDbLine
 10
11.819948
 20
3.658906
 30
0.0
 11
11.847292
 21
3.652917
 31
0.0
  0
LINE
  5
165
100
AcDbEntity
  8
文字
100
AcDbLine
 10
11.847292
 20
3.652917
 30
0.0
 11
12.663698
 21
3.630781
 31
0.0
  0
LINE
  5
166
100
AcDbEntity
  8
文字
100
AcDbLine
 10
12.663698
 20
3.630781
 30
0.0
 11
12.930104
 21
3.671667
 31
0.0
  0
LINE
  5
167
100
AcDbEntity
  8
文字
100
AcDbLine
 10
12.930104
 20
3.671667
 30
0.0
 11
13.528542
 21
3.84875
 31
0.0
  0
LINE
  5
168
100
AcDbEntity
  8
文字
100
AcDbLine
 10
13.528542
 20
3.84875
 30
0.0
 11
13.851198
 21
3.997448
 31
0.0
  0
LINE
  5
169
100
AcDbEntity
  8
文字
100
AcDbLine
 10
13.851198
 20
3.997448
 30
0.0
 11
14.183229
 21
4.194583
 31
0.0
  0
LINE
  5
16A
100
AcDbEntity
  8
文字
100
AcDbLine
 10
14.183229
 20
4.194583
 30
0.0
 11
14.519948
 21
4.446406
 31
0.0
  0
LINE
  5
16B
100
AcDbEntity
  8
文字
100
AcDbLine
 10
14.519948
 20
4.446406
 30
0.0
 11
14.856667
 21
4.759167
 31
0.0
  0
LINE
  5
16C
100
AcDbEntity
  8
文字
100
AcDbLine
 10
14.856667
 20
4.759167
 30
0.0
 11
15.188698
 21
5.139115
 31
0.0
  0
LINE
  5
16D
100
AcDbEntity
  8
文字
100
AcDbLine
 10
15.188698
 20
5.139115
 30
0.0
 11
15.511354
 21
5.5925
 31
0.0
  0
LINE
  5
16E
100
AcDbEntity
  8
文字
100
AcDbLine
 10
15.511354
 20
5.5925
 30
0.0
 11
15.844531
 21
6.221667
 31
0.0
  0
LINE
  5
16F
100
AcDbEntity
  8
文字
100
AcDbLine
 10
15.844531
 20
6.221667
 30
0.0
 11
16.142396
 21
6.908646
 31
0.0
  0
LINE
  5
170
100
AcDbEntity
  8
文字
100
AcDbLine
 10
16.142396
 20
6.908646
 30
0.0
 11
16.407135
 21
7.645625
 31
0.0
  0
LINE
  5
171
100
AcDbEntity
  8
文字
100
AcDbLine
 10
16.407135
 20
7.645625
 30
0.0
 11
16.640938
 21
8.424792
 31
0.0
  0
LINE
  5
172
100
AcDbEntity
  8
文字
100
AcDbLine
 10
16.640938
 20
8.424792
 30
0.0
 11
16.84599
 21
9.238333
 31
0.0
  0
LINE
  5
173
100
AcDbEntity
  8
文字
100
AcDbLine
 10
16.84599
 20
9.238333
 30
0.0
 11
17.024479
 21
10.078438
 31
0.0
  0
LINE
  5
174
100
AcDbEntity
  8
文字
100
AcDbLine
 10
17.024479
 20
10.078438
 30
0.0
 11
17.178594
 21
10.937292
 31
0.0
  0
LINE
  5
175
100
AcDbEntity
  8
文字
100
AcDbLine
 10
17.178594
 20
10.937292
 30
0.0
 11
17.310521
 21
11.807083
 31
0.0
  0
LINE
  5
176
100
AcDbEntity
  8
文字
100
AcDbLine
 10
17.310521
 20
11.807083
 30
0.0
 11
17.422448
 21
12.68
 31
0.0
  0
LINE
  5
177
100
AcDbEntity
  8
文字
100
AcDbLine
 10
17.422448
 20
12.68
 30
0.0
 11
17.516562
 21
13.548229
 31
0.0
  0
LINE
  5
178
100
AcDbEntity
  8
文字
100
AcDbLine
 10
17.516562
 20
13.548229
 30
0.0
 11
17.595052
 21
14.403958
 31
0.0
  0
LINE
  5
179
100
AcDbEntity
  8
文字
100
AcDbLine
 10
17.595052
 20
14.403958
 30
0.0
 11
17.660104
 21
15.239375
 31
0.0
  0
LINE
  5
17A
100
AcDbEntity
  8
文字
100
AcDbLine
 10
17.660104
 20
15.239375
 30
0.0
 11
17.713906
 21
16.046667
 31
0.0
  0
LINE
  5
17B
100
AcDbEntity
  8
文字
100
AcDbLine
 10
17.713906
 20
16.046667
 30
0.0
 11
17.758646
 21
16.818021
 31
0.0
  0
LINE
  5
17C
100
AcDbEntity
  8
文字
100
AcDbLine
 10
17.758646
 20
16.818021
 30
0.0
 11
17.79651
 21
17.545625
 31
0.0
  0
LINE
  5
17D
100
AcDbEntity
  8
文字
100
AcDbLine
 10
17.79651
 20
17.545625
 30
0.0
 11
18.056927
 21
17.721302
 31
0.0
  0
LINE
  5
17E
100
AcDbEntity
  8
文字
100
AcDbLine
 10
18.056927
 20
17.721302
 30
0.0
 11
18.457448
 21
18.070156
 31
0.0
  0
LINE
  5
17F
100
AcDbEntity
  8
文字
100
AcDbLine
 10
18.457448
 20
18.070156
 30
0.0
 11
18.600677
 21
18.242083
 31
0.0
  0
LINE
  5
180
100
AcDbEntity
  8
文字
100
AcDbLine
 10
18.600677
 20
18.242083
 30
0.0
 11
18.82099
 21
18.740365
 31
0.0
  0
LINE
  5
181
100
AcDbEntity
  8
文字
100
AcDbLine
 10
18.82099
 20
18.740365
 30
0.0
 11
18.829844
 21
18.898542
 31
0.0
  0
LINE
  5
182
100
AcDbEntity
  8
文字
100
AcDbLine
 10
18.829844
 20
18.898542
 30
0.0
 11
18.58401
 21
19.475
 31
0.0
  0
LINE
  5
183
100
AcDbEntity
  8
文字
100
AcDbLine
 10
18.58401
 20
19.475
 30
0.0
 11
18.460052
 21
19.601927
 31
0.0
  0
LINE
  5
184
100
AcDbEntity
  8
文字
100
AcDbLine
 10
18.460052
 20
19.601927
 30
0.0
 11
18.148073
 21
19.830781
 31
0.0
  0
LINE
  5
185
100
AcDbEntity
  8
文字
100
AcDbLine
 10
18.148073
 20
19.830781
 30
0.0
 11
15.511354
 21
21.588594
 31
0.0
  0
LINE
  5
186
100
AcDbEntity
  8
文字
100
AcDbLine
 10
15.511354
 20
21.588594
 30
0.0
 11
14.105104
 21
19.655
 31
0.0
  0
LINE
  5
187
100
AcDbEntity
  8
文字
100
AcDbLine
 10
14.105104
 20
19.655
 30
0.0
 11
7.249635
 21
19.655
 31
0.0
  0
LINE
  5
188
100
AcDbEntity
  8
文字
100
AcDbLine
 10
25.179323
 20
36.881563
 30
0.0
 11
25.620156
 21
36.556354
 31
0.0
  0
LINE
  5
189
100
AcDbEntity
  8
文字
100
AcDbLine
 10
25.620156
 20
36.556354
 30
0.0
 11
26.029427
 21
36.215833
 31
0.0
  0
LINE
  5
18A
100
AcDbEntity
  8
文字
100
AcDbLine
 10
26.029427
 20
36.215833
 30
0.0
 11
26.408385
 21
35.863438
 31
0.0
  0
LINE
  5
18B
100
AcDbEntity
  8
文字
100
AcDbLine
 10
26.408385
 20
35.863438
 30
0.0
 11
26.758281
 21
35.502604
 31
0.0
  0
LINE
  5
18C
100
AcDbEntity
  8
文字
100
AcDbLine
 10
26.758281
 20
35.502604
 30
0.0
 11
27.080365
 21
35.136771
 31
0.0
  0
LINE
  5
18D
100
AcDbEntity
  8
文字
100
AcDbLine
 10
27.080365
 20
35.136771
 30
0.0
 11
27.375885
 21
34.769375
 31
0.0
  0
LINE
  5
18E
100
AcDbEntity
  8
文字
100
AcDbLine
 10
27.375885
 20
34.769375
 30
0.0
 11
27.646094
 21
34.403854
 31
0.0
  0
LINE
  5
18F
100
AcDbEntity
  8
文字
100
AcDbLine
 10
27.646094
 20
34.403854
 30
0.0
 11
27.89224
 21
34.043646
 31
0.0
  0
LINE
  5
190
100
AcDbEntity
  8
文字
100
AcDbLine
 10
27.89224
 20
34.043646
 30
0.0
 11
28.115573
 21
33.692188
 31
0.0
  0
LINE
  5
191
100
AcDbEntity
  8
文字
100
AcDbLine
 10
28.115573
 20
33.692188
 30
0.0
 11
28.317344
 21
33.352917
 31
0.0
  0
LINE
  5
192
100
AcDbEntity
  8
文字
100
AcDbLine
 10
28.317344
 20
33.352917
 30
0.0
 11
28.498802
 21
33.029271
 31
0.0
  0
LINE
  5
193
100
AcDbEntity
  8
文字
100
AcDbLine
 10
28.498802
 20
33.029271
 30
0.0
 11
28.661198
 21
32.724687
 31
0.0
  0
LINE
  5
194
100
AcDbEntity
  8
文字
100
AcDbLine
 10
28.661198
 20
32.724687
 30
0.0
 11
28.805781
 21
32.442604
 31
0.0
  0
LINE
  5
195
100
AcDbEntity
  8
文字
100
AcDbLine
 10
28.805781
 20
32.442604
 30
0.0
 11
29.04651
 21
31.959688
 31
0.0
  0
LINE
  5
196
100
AcDbEntity
  8
文字
100
AcDbLine
 10
29.04651
 20
31.959688
 30
0.0
 11
29.386198
 21
31.367604
 31
0.0
  0
LINE
  5
197
100
AcDbEntity
  8
文字
100
AcDbLine
 10
29.386198
 20
31.367604
 30
0.0
 11
29.762448
 21
30.921458
 31
0.0
  0
LINE
  5
198
100
AcDbEntity
  8
文字
100
AcDbLine
 10
29.762448
 20
30.921458
 30
0.0
 11
30.16026
 21
30.6125
 31
0.0
  0
LINE
  5
199
100
AcDbEntity
  8
文字
100
AcDbLine
 10
30.16026
 20
30.6125
 30
0.0
 11
30.564635
 21
30.431979
 31
0.0
  0
LINE
  5
19A
100
AcDbEntity
  8
文字
100
AcDbLine
 10
30.564635
 20
30.431979
 30
0.0
 11
30.960573
 21
30.371146
 31
0.0
  0
LINE
  5
19B
100
AcDbEntity
  8
文字
100
AcDbLine
 10
30.960573
 20
30.371146
 30
0.0
 11
31.333073
 21
30.42125
 31
0.0
  0
LINE
  5
19C
100
AcDbEntity
  8
文字
100
AcDbLine
 10
31.333073
 20
30.42125
 30
0.0
 11
31.667135
 21
30.573542
 31
0.0
  0
LINE
  5
19D
100
AcDbEntity
  8
文字
100
AcDbLine
 10
31.667135
 20
30.573542
 30
0.0
 11
31.94776
 21
30.819271
 31
0.0
  0
LINE
  5
19E
100
AcDbEntity
  8
文字
100
AcDbLine
 10
31.94776
 20
30.819271
 30
0.0
 11
32.159948
 21
31.149687
 31
0.0
  0
LINE
  5
19F
100
AcDbEntity
  8
文字
100
AcDbLine
 10
32.159948
 20
31.149687
 30
0.0
 11
32.288698
 21
31.556042
 31
0.0
  0
LINE
  5
1A0
100
AcDbEntity
  8
文字
100
AcDbLine
 10
32.288698
 20
31.556042
 30
0.0
 11
32.31901
 21
32.029583
 31
0.0
  0
LINE
  5
1A1
100
AcDbEntity
  8
文字
100
AcDbLine
 10
32.31901
 20
32.029583
 30
0.0
 11
32.235885
 21
32.561563
 31
0.0
  0
LINE
  5
1A2
100
AcDbEntity
  8
文字
100
AcDbLine
 10
32.235885
 20
32.561563
 30
0.0
 11
32.024323
 21
33.143229
 31
0.0
  0
LINE
  5
1A3
100
AcDbEntity
  8
文字
100
AcDbLine
 10
32.024323
 20
33.143229
 30
0.0
 11
31.669323
 21
33.765833
 31
0.0
  0
LINE
  5
1A4
100
AcDbEntity
  8
文字
100
AcDbLine
 10
31.669323
 20
33.765833
 30
0.0
 11
31.155885
 21
34.420625
 31
0.0
  0
LINE
  5
1A5
100
AcDbEntity
  8
文字
100
AcDbLine
 10
31.155885
 20
34.420625
 30
0.0
 11
30.93099
 21
34.664167
 31
0.0
  0
LINE
  5
1A6
100
AcDbEntity
  8
文字
100
AcDbLine
 10
30.93099
 20
34.664167
 30
0.0
 11
30.678594
 21
34.901771
 31
0.0
  0
LINE
  5
1A7
100
AcDbEntity
  8
文字
100
AcDbLine
 10
30.678594
 20
34.901771
 30
0.0
 11
30.399323
 21
35.132188
 31
0.0
  0
LINE
  5
1A8
100
AcDbEntity
  8
文字
100
AcDbLine
 10
30.399323
 20
35.132188
 30
0.0
 11
30.093802
 21
35.354167
 31
0.0
  0
LINE
  5
1A9
100
AcDbEntity
  8
文字
100
AcDbLine
 10
30.093802
 20
35.354167
 30
0.0
 11
29.762656
 21
35.566458
 31
0.0
  0
LINE
  5
1AA
100
AcDbEntity
  8
文字
100
AcDbLine
 10
29.762656
 20
35.566458
 30
0.0
 11
29.40651
 21
35.767813
 31
0.0
  0
LINE
  5
1AB
100
AcDbEntity
  8
文字
100
AcDbLine
 10
29.40651
 20
35.767813
 30
0.0
 11
29.02599
 21
35.956979
 31
0.0
  0
LINE
  5
1AC
100
AcDbEntity
  8
文字
100
AcDbLine
 10
29.02599
 20
35.956979
 30
0.0
 11
28.621719
 21
36.132708
 31
0.0
  0
LINE
  5
1AD
100
AcDbEntity
  8
文字
100
AcDbLine
 10
28.621719
 20
36.132708
 30
0.0
 11
28.194323
 21
36.29375
 31
0.0
  0
LINE
  5
1AE
100
AcDbEntity
  8
文字
100
AcDbLine
 10
28.194323
 20
36.29375
 30
0.0
 11
27.744427
 21
36.438854
 31
0.0
  0
LINE
  5
1AF
100
AcDbEntity
  8
文字
100
AcDbLine
 10
27.744427
 20
36.438854
 30
0.0
 11
27.272656
 21
36.566771
 31
0.0
  0
LINE
  5
1B0
100
AcDbEntity
  8
文字
100
AcDbLine
 10
27.272656
 20
36.566771
 30
0.0
 11
26.779635
 21
36.67625
 31
0.0
  0
LINE
  5
1B1
100
AcDbEntity
  8
文字
100
AcDbLine
 10
26.779635
 20
36.67625
 30
0.0
 11
26.26599
 21
36.766042
 31
0.0
  0
LINE
  5
1B2
100
AcDbEntity
  8
文字
100
AcDbLine
 10
26.26599
 20
36.766042
 30
0.0
 11
25.732344
 21
36.834896
 31
0.0
  0
LINE
  5
1B3
100
AcDbEntity
  8
文字
100
AcDbLine
 10
25.732344
 20
36.834896
 30
0.0
 11
25.179323
 21
36.881563
 31
0.0
  0
LINE
  5
1B4
100
AcDbEntity
  8
文字
100
AcDbLine
 10
54.534792
 20
22.4675
 30
0.0
 11
55.035365
 21
22.178906
 31
0.0
  0
LINE
  5
1B5
100
AcDbEntity
  8
文字
100
AcDbLine
 10
55.035365
 20
22.178906
 30
0.0
 11
55.54875
 21
21.813438
 31
0.0
  0
LINE
  5
1B6
100
AcDbEntity
  8
文字
100
AcDbLine
 10
55.54875
 20
21.813438
 30
0.0
 11
56.06901
 21
21.383281
 31
0.0
  0
LINE
  5
1B7
100
AcDbEntity
  8
文字
100
AcDbLine
 10
56.06901
 20
21.383281
 30
0.0
 11
56.590208
 21
20.900625
 31
0.0
  0
LINE
  5
1B8
100
AcDbEntity
  8
文字
100
AcDbLine
 10
56.590208
 20
20.900625
 30
0.0
 11
57.106406
 21
20.377656
 31
0.0
  0
LINE
  5
1B9
100
AcDbEntity
  8
文字
100
AcDbLine
 10
57.106406
 20
20.377656
 30
0.0
 11
57.611667
 21
19.826563
 31
0.0
  0
LINE
  5
1BA
100
AcDbEntity
  8
文字
100
AcDbLine
 10
57.611667
 20
19.826563
 30
0.0
 11
58.100052
 21
19.259531
 31
0.0
  0
LINE
  5
1BB
100
AcDbEntity
  8
文字
100
AcDbLine
 10
58.100052
 20
19.259531
 30
0.0
 11
58.565625
 21
18.68875
 31
0.0
  0
LINE
  5
1BC
100
AcDbEntity
  8
文字
100
AcDbLine
 10
58.565625
 20
18.68875
 30
0.0
 11
59.002448
 21
18.126406
 31
0.0
  0
LINE
  5
1BD
100
AcDbEntity
  8
文字
100
AcDbLine
 10
59.002448
 20
18.126406
 30
0.0
 11
59.404583
 21
17.584688
 31
0.0
  0
LINE
  5
1BE
100
AcDbEntity
  8
文字
100
AcDbLine
 10
59.404583
 20
17.584688
 30
0.0
 11
59.766094
 21
17.075781
 31
0.0
  0
LINE
  5
1BF
100
AcDbEntity
  8
文字
100
AcDbLine
 10
59.766094
 20
17.075781
 30
0.0
 11
60.081042
 21
16.611875
 31
0.0
  0
LINE
  5
1C0
100
AcDbEntity
  8
文字
100
AcDbLine
 10
60.081042
 20
16.611875
 30
0.0
 11
60.34349
 21
16.205156
 31
0.0
  0
LINE
  5
1C1
100
AcDbEntity
  8
文字
100
AcDbLine
 10
60.34349
 20
16.205156
 30
0.0
 11
60.5475
 21
15.867813
 31
0.0
  0
LINE
  5
1C2
100
AcDbEntity
  8
文字
100
AcDbLine
 10
60.5475
 20
15.867813
 30
0.0
 11
60.687135
 21
15.612031
 31
0.0
  0
LINE
  5
1C3
100
AcDbEntity
  8
文字
100
AcDbLine
 10
60.687135
 20
15.612031
 30
0.0
 11
60.993906
 21
15.203698
 31
0.0
  0
LINE
  5
1C4
100
AcDbEntity
  8
文字
100
AcDbLine
 10
60.993906
 20
15.203698
 30
0.0
 11
61.341302
 21
14.890677
 31
0.0
  0
LINE
  5
1C5
100
AcDbEntity
  8
文字
100
AcDbLine
 10
61.341302
 20
14.890677
 30
0.0
 11
61.713698
 21
14.669844
 31
0.0
  0
LINE
  5
1C6
100
AcDbEntity
  8
文字
100
AcDbLine
 10
61.713698
 20
14.669844
 30
0.0
 11
62.095469
 21
14.538073
 31
0.0
  0
LINE
  5
1C7
100
AcDbEntity
  8
文字
100
AcDbLine
 10
62.095469
 20
14.538073
 30
0.0
 11
62.47099
 21
14.49224
 31
0.0
  0
LINE
  5
1C8
100
AcDbEntity
  8
文字
100
AcDbLine
 10
62.47099
 20
14.49224
 30
0.0
 11
62.824635
 21
14.529219
 31
0.0
  0
LINE
  5
1C9
100
AcDbEntity
  8
文字
100
AcDbLine
 10
62.824635
 20
14.529219
 30
0.0
 11
63.140781
 21
14.645885
 31
0.0
  0
LINE
  5
1CA
100
AcDbEntity
  8
文字
100
AcDbLine
 10
63.140781
 20
14.645885
 30
0.0
 11
63.598073
 21
15.105781
 31
0.0
  0
LINE
  5
1CB
100
AcDbEntity
  8
文字
100
AcDbLine
 10
63.598073
 20
15.105781
 30
0.0
 11
63.707969
 21
15.44276
 31
0.0
  0
LINE
  5
1CC
100
AcDbEntity
  8
文字
100
AcDbLine
 10
63.707969
 20
15.44276
 30
0.0
 11
63.717865
 21
15.846927
 31
0.0
  0
LINE
  5
1CD
100
AcDbEntity
  8
文字
100
AcDbLine
 10
63.717865
 20
15.846927
 30
0.0
 11
63.612135
 21
16.315156
 31
0.0
  0
LINE
  5
1CE
100
AcDbEntity
  8
文字
100
AcDbLine
 10
63.612135
 20
16.315156
 30
0.0
 11
63.375156
 21
16.844323
 31
0.0
  0
LINE
  5
1CF
100
AcDbEntity
  8
文字
100
AcDbLine
 10
63.375156
 20
16.844323
 30
0.0
 11
62.991302
 21
17.431302
 31
0.0
  0
LINE
  5
1D0
100
AcDbEntity
  8
文字
100
AcDbLine
 10
62.991302
 20
17.431302
 30
0.0
 11
62.444948
 21
18.072969
 31
0.0
  0
LINE
  5
1D1
100
AcDbEntity
  8
文字
100
AcDbLine
 10
62.444948
 20
18.072969
 30
0.0
 11
61.967917
 21
18.586146
 31
0.0
  0
LINE
  5
1D2
100
AcDbEntity
  8
文字
100
AcDbLine
 10
61.967917
 20
18.586146
 30
0.0
 11
61.45526
 21
19.070573
 31
0.0
  0
LINE
  5
1D3
100
AcDbEntity
  8
文字
100
AcDbLine
 10
61.45526
 20
19.070573
 30
0.0
 11
60.913542
 21
19.525625
 31
0.0
  0
LINE
  5
1D4
100
AcDbEntity
  8
文字
100
AcDbLine
 10
60.913542
 20
19.525625
 30
0.0
 11
60.349323
 21
19.950677
 31
0.0
  0
LINE
  5
1D5
100
AcDbEntity
  8
文字
100
AcDbLine
 10
60.349323
 20
19.950677
 30
0.0
 11
59.769167
 21
20.345104
 31
0.0
  0
LINE
  5
1D6
100
AcDbEntity
  8
文字
100
AcDbLine
 10
59.769167
 20
20.345104
 30
0.0
 11
59.179635
 21
20.708281
 31
0.0
  0
LINE
  5
1D7
100
AcDbEntity
  8
文字
100
AcDbLine
 10
59.179635
 20
20.708281
 30
0.0
 11
58.587292
 21
21.039583
 31
0.0
  0
LINE
  5
1D8
100
AcDbEntity
  8
文字
100
AcDbLine
 10
58.587292
 20
21.039583
 30
0.0
 11
57.998698
 21
21.338385
 31
0.0
  0
LINE
  5
1D9
100
AcDbEntity
  8
文字
100
AcDbLine
 10
57.998698
 20
21.338385
 30
0.0
 11
57.420417
 21
21.604063
 31
0.0
  0
LINE
  5
1DA
100
AcDbEntity
  8
文字
100
AcDbLine
 10
57.420417
 20
21.604063
 30
0.0
 11
56.85901
 21
21.83599
 31
0.0
  0
LINE
  5
1DB
100
AcDbEntity
  8
文字
100
AcDbLine
 10
56.85901
 20
21.83599
 30
0.0
 11
56.321042
 21
22.033542
 31
0.0
  0
LINE
  5
1DC
100
AcDbEntity
  8
文字
100
AcDbLine
 10
56.321042
 20
22.033542
 30
0.0
 11
55.813073
 21
22.196094
 31
0.0
  0
LINE
  5
1DD
100
AcDbEntity
  8
文字
100
AcDbLine
 10
55.813073
 20
22.196094
 30
0.0
 11
55.341667
 21
22.323021
 31
0.0
  0
LINE
  5
1DE
100
AcDbEntity
  8
文字
100
AcDbLine
 10
55.341667
 20
22.323021
 30
0.0
 11
54.913385
 21
22.413698
 31
0.0
  0
LINE
  5
1DF
100
AcDbEntity
  8
文字
100
AcDbLine
 10
54.913385
 20
22.413698
 30
0.0
 11
54.534792
 21
22.4675
 31
0.0
  0
LINE
  5
1E0
100
AcDbEntity
  8
文字
100
AcDbLine
 10
84.241823
 20
20.006563
 30
0.0
 11
84.574687
 21
19.921615
 31
0.0
  0
LINE
  5
1E1
100
AcDbEntity
  8
文字
100
AcDbLine
 10
84.574687
 20
19.921615
 30
0.0
 11
85.129167
 21
19.864531
 31
0.0
  0
LINE
  5
1E2
100
AcDbEntity
  8
文字
100
AcDbLine
 10
85.129167
 20
19.864531
 30
0.0
 11
85.351406
 21
19.885521
 31
0.0
  0
LINE
  5
1E3
100
AcDbEntity
  8
文字
100
AcDbLine
 10
85.351406
 20
19.885521
 30
0.0
 11
85.801875
 21
20.105365
 31
0.0
  0
LINE
  5
1E4
100
AcDbEntity
  8
文字
100
AcDbLine
 10
85.801875
 20
20.105365
 30
0.0
 11
85.925104
 21
20.348281
 31
0.0
  0
LINE
  5
1E5
100
AcDbEntity
  8
文字
100
AcDbLine
 10
85.925104
 20
20.348281
 30
0.0
 11
85.850573
 21
20.788438
 31
0.0
  0
LINE
  5
1E6
100
AcDbEntity
  8
文字
100
AcDbLine
 10
85.850573
 20
20.788438
 30
0.0
 11
85.631615
 21
21.092292
 31
0.0
  0
LINE
  5
1E7
100
AcDbEntity
  8
文字
100
AcDbLine
 10
85.631615
 20
21.092292
 30
0.0
 11
85.472292
 21
21.237031
 31
0.0
  0
LINE
  5
1E8
100
AcDbEntity
  8
文字
100
AcDbLine
 10
85.472292
 20
21.237031
 30
0.0
 11
82.48401
 21
22.994844
 31
0.0
  0
LINE
  5
1E9
100
AcDbEntity
  8
文字
100
AcDbLine
 10
82.48401
 20
22.994844
 30
0.0
 11
82.156094
 21
22.325104
 31
0.0
  0
LINE
  5
1EA
100
AcDbEntity
  8
文字
100
AcDbLine
 10
82.156094
 20
22.325104
 30
0.0
 11
81.80599
 21
21.654115
 31
0.0
  0
LINE
  5
1EB
100
AcDbEntity
  8
文字
100
AcDbLine
 10
81.80599
 20
21.654115
 30
0.0
 11
81.434948
 21
20.985312
 31
0.0
  0
LINE
  5
1EC
100
AcDbEntity
  8
文字
100
AcDbLine
 10
81.434948
 20
20.985312
 30
0.0
 11
81.044219
 21
20.322135
 31
0.0
  0
LINE
  5
1ED
100
AcDbEntity
  8
文字
100
AcDbLine
 10
81.044219
 20
20.322135
 30
0.0
 11
80.635052
 21
19.668021
 31
0.0
  0
LINE
  5
1EE
100
AcDbEntity
  8
文字
100
AcDbLine
 10
80.635052
 20
19.668021
 30
0.0
 11
80.208698
 21
19.026406
 31
0.0
  0
LINE
  5
1EF
100
AcDbEntity
  8
文字
100
AcDbLine
 10
80.208698
 20
19.026406
 30
0.0
 11
79.766406
 21
18.400729
 31
0.0
  0
LINE
  5
1F0
100
AcDbEntity
  8
文字
100
AcDbLine
 10
79.766406
 20
18.400729
 30
0.0
 11
79.309427
 21
17.794427
 31
0.0
  0
LINE
  5
1F1
100
AcDbEntity
  8
文字
100
AcDbLine
 10
79.309427
 20
17.794427
 30
0.0
 11
78.83901
 21
17.210937
 31
0.0
  0
LINE
  5
1F2
100
AcDbEntity
  8
文字
100
AcDbLine
 10
78.83901
 20
17.210937
 30
0.0
 11
78.356406
 21
16.653698
 31
0.0
  0
LINE
  5
1F3
100
AcDbEntity
  8
文字
100
AcDbLine
 10
78.356406
 20
16.653698
 30
0.0
 11
77.862865
 21
16.126146
 31
0.0
  0
LINE
  5
1F4
100
AcDbEntity
  8
文字
100
AcDbLine
 10
77.862865
 20
16.126146
 30
0.0
 11
77.359635
 21
15.631719
 31
0.0
  0
LINE
  5
1F5
100
AcDbEntity
  8
文字
100
AcDbLine
 10
77.359635
 20
15.631719
 30
0.0
 11
76.847969
 21
15.173854
 31
0.0
  0
LINE
  5
1F6
100
AcDbEntity
  8
文字
100
AcDbLine
 10
76.847969
 20
15.173854
 30
0.0
 11
76.329115
 21
14.75599
 31
0.0
  0
LINE
  5
1F7
100
AcDbEntity
  8
文字
100
AcDbLine
 10
76.329115
 20
14.75599
 30
0.0
 11
75.804323
 21
14.381563
 31
0.0
  0
LINE
  5
1F8
100
AcDbEntity
  8
文字
100
AcDbLine
 10
75.804323
 20
14.381563
 30
0.0
 11
75.859323
 21
14.396354
 31
0.0
  0
LINE
  5
1F9
100
AcDbEntity
  8
文字
100
AcDbLine
 10
75.859323
 20
14.396354
 30
0.0
 11
76.624323
 21
14.653229
 31
0.0
  0
LINE
  5
1FA
100
AcDbEntity
  8
文字
100
AcDbLine
 10
76.624323
 20
14.653229
 30
0.0
 11
77.054323
 21
14.824271
 31
0.0
  0
LINE
  5
1FB
100
AcDbEntity
  8
文字
100
AcDbLine
 10
77.054323
 20
14.824271
 30
0.0
 11
77.559323
 21
15.045312
 31
0.0
  0
LINE
  5
1FC
100
AcDbEntity
  8
文字
100
AcDbLine
 10
77.559323
 20
15.045312
 30
0.0
 11
78.131823
 21
15.320729
 31
0.0
  0
LINE
  5
1FD
100
AcDbEntity
  8
文字
100
AcDbLine
 10
78.131823
 20
15.320729
 30
0.0
 11
78.764323
 21
15.654896
 31
0.0
  0
LINE
  5
1FE
100
AcDbEntity
  8
文字
100
AcDbLine
 10
78.764323
 20
15.654896
 30
0.0
 11
79.449323
 21
16.052187
 31
0.0
  0
LINE
  5
1FF
100
AcDbEntity
  8
文字
100
AcDbLine
 10
79.449323
 20
16.052187
 30
0.0
 11
80.179323
 21
16.516979
 31
0.0
  0
LINE
  5
200
100
AcDbEntity
  8
文字
100
AcDbLine
 10
80.179323
 20
16.516979
 30
0.0
 11
80.946823
 21
17.053646
 31
0.0
  0
LINE
  5
201
100
AcDbEntity
  8
文字
100
AcDbLine
 10
80.946823
 20
17.053646
 30
0.0
 11
81.744323
 21
17.666563
 31
0.0
  0
LINE
  5
202
100
AcDbEntity
  8
文字
100
AcDbLine
 10
81.744323
 20
17.666563
 30
0.0
 11
82.564323
 21
18.360104
 31
0.0
  0
LINE
  5
203
100
AcDbEntity
  8
文字
100
AcDbLine
 10
82.564323
 20
18.360104
 30
0.0
 11
83.399323
 21
19.138646
 31
0.0
  0
LINE
  5
204
100
AcDbEntity
  8
文字
100
AcDbLine
 10
83.399323
 20
19.138646
 30
0.0
 11
84.241823
 21
20.006563
 31
0.0
  0
LINE
  5
205
100
AcDbEntity
  8
文字
100
AcDbLine
 10
50.316042
 20
-2.317656
 30
0.0
 11
50.484948
 21
-2.31401
 31
0.0
  0
LINE
  5
206
100
AcDbEntity
  8
文字
100
AcDbLine
 10
50.484948
 20
-2.31401
 30
0.0
 11
51.712448
 21
-2.219219
 31
0.0
  0
LINE
  5
207
100
AcDbEntity
  8
文字
100
AcDbLine
 10
51.712448
 20
-2.219219
 30
0.0
 11
52.688542
 21
-2.084323
 31
0.0
  0
LINE
  5
208
100
AcDbEntity
  8
文字
100
AcDbLine
 10
52.688542
 20
-2.084323
 30
0.0
 11
53.851198
 21
-1.861927
 31
0.0
  0
LINE
  5
209
100
AcDbEntity
  8
文字
100
AcDbLine
 10
53.851198
 20
-1.861927
 30
0.0
 11
55.159167
 21
-1.530156
 31
0.0
  0
LINE
  5
20A
100
AcDbEntity
  8
文字
100
AcDbLine
 10
55.159167
 20
-1.530156
 30
0.0
 11
56.571198
 21
-1.067135
 31
0.0
  0
LINE
  5
20B
100
AcDbEntity
  8
文字
100
AcDbLine
 10
56.571198
 20
-1.067135
 30
0.0
 11
58.046042
 21
-0.45099
 31
0.0
  0
LINE
  5
20C
100
AcDbEntity
  8
文字
100
AcDbLine
 10
58.046042
 20
-0.45099
 30
0.0
 11
59.542448
 21
0.340156
 31
0.0
  0
LINE
  5
20D
100
AcDbEntity
  8
文字
100
AcDbLine
 10
59.542448
 20
0.340156
 30
0.0
 11
61.019167
 21
1.328177
 31
0.0
  0
LINE
  5
20E
100
AcDbEntity
  8
文字
100
AcDbLine
 10
61.019167
 20
1.328177
 30
0.0
 11
62.434948
 21
2.534948
 31
0.0
  0
LINE
  5
20F
100
AcDbEntity
  8
文字
100
AcDbLine
 10
62.434948
 20
2.534948
 30
0.0
 11
63.748542
 21
3.982344
 31
0.0
  0
LINE
  5
210
100
AcDbEntity
  8
文字
100
AcDbLine
 10
63.748542
 20
3.982344
 30
0.0
 11
64.918698
 21
5.69224
 31
0.0
  0
LINE
  5
211
100
AcDbEntity
  8
文字
100
AcDbLine
 10
64.918698
 20
5.69224
 30
0.0
 11
65.904167
 21
7.68651
 31
0.0
  0
LINE
  5
212
100
AcDbEntity
  8
文字
100
AcDbLine
 10
65.904167
 20
7.68651
 30
0.0
 11
66.663698
 21
9.987031
 31
0.0
  0
LINE
  5
213
100
AcDbEntity
  8
文字
100
AcDbLine
 10
66.663698
 20
9.987031
 30
0.0
 11
66.998646
 21
9.941562
 31
0.0
  0
LINE
  5
214
100
AcDbEntity
  8
文字
100
AcDbLine
 10
66.998646
 20
9.941562
 30
0.0
 11
67.565104
 21
9.982813
 31
0.0
  0
LINE
  5
215
100
AcDbEntity
  8
文字
100
AcDbLine
 10
67.565104
 20
9.982813
 30
0.0
 11
67.794115
 21
10.058281
 31
0.0
  0
LINE
  5
216
100
AcDbEntity
  8
文字
100
AcDbLine
 10
67.794115
 20
10.058281
 30
0.0
 11
68.249271
 21
10.436563
 31
0.0
  0
LINE
  5
217
100
AcDbEntity
  8
文字
100
AcDbLine
 10
68.249271
 20
10.436563
 30
0.0
 11
68.319531
 21
10.594531
 31
0.0
  0
LINE
  5
218
100
AcDbEntity
  8
文字
100
AcDbLine
 10
68.319531
 20
10.594531
 30
0.0
 11
68.159948
 21
11.235781
 31
0.0
  0
LINE
  5
219
100
AcDbEntity
  8
文字
100
AcDbLine
 10
68.159948
 20
11.235781
 30
0.0
 11
68.003646
 21
11.370312
 31
0.0
  0
LINE
  5
21A
100
AcDbEntity
  8
文字
100
AcDbLine
 10
68.003646
 20
11.370312
 30
0.0
 11
67.542604
 21
11.569063
 31
0.0
  0
LINE
  5
21B
100
AcDbEntity
  8
文字
100
AcDbLine
 10
67.542604
 20
11.569063
 30
0.0
 11
63.675417
 21
12.799531
 31
0.0
  0
LINE
  5
21C
100
AcDbEntity
  8
文字
100
AcDbLine
 10
63.675417
 20
12.799531
 30
0.0
 11
63.360833
 21
11.37974
 31
0.0
  0
LINE
  5
21D
100
AcDbEntity
  8
文字
100
AcDbLine
 10
63.360833
 20
11.37974
 30
0.0
 11
62.9775
 21
10.00526
 31
0.0
  0
LINE
  5
21E
100
AcDbEntity
  8
文字
100
AcDbLine
 10
62.9775
 20
10.00526
 30
0.0
 11
62.522292
 21
8.679219
 31
0.0
  0
LINE
  5
21F
100
AcDbEntity
  8
文字
100
AcDbLine
 10
62.522292
 20
8.679219
 30
0.0
 11
61.992083
 21
7.40474
 31
0.0
  0
LINE
  5
220
100
AcDbEntity
  8
文字
100
AcDbLine
 10
61.992083
 20
7.40474
 30
0.0
 11
61.38375
 21
6.184948
 31
0.0
  0
LINE
  5
221
100
AcDbEntity
  8
文字
100
AcDbLine
 10
61.38375
 20
6.184948
 30
0.0
 11
60.694167
 21
5.022969
 31
0.0
  0
LINE
  5
222
100
AcDbEntity
  8
文字
100
AcDbLine
 10
60.694167
 20
5.022969
 30
0.0
 11
59.920208
 21
3.921927
 31
0.0
  0
LINE
  5
223
100
AcDbEntity
  8
文字
100
AcDbLine
 10
59.920208
 20
3.921927
 30
0.0
 11
59.05875
 21
2.884948
 31
0.0
  0
LINE
  5
224
100
AcDbEntity
  8
文字
100
AcDbLine
 10
59.05875
 20
2.884948
 30
0.0
 11
58.106667
 21
1.915156
 31
0.0
  0
LINE
  5
225
100
AcDbEntity
  8
文字
100
AcDbLine
 10
58.106667
 20
1.915156
 30
0.0
 11
57.060833
 21
1.015677
 31
0.0
  0
LINE
  5
226
100
AcDbEntity
  8
文字
100
AcDbLine
 10
57.060833
 20
1.015677
 30
0.0
 11
55.918125
 21
0.189635
 31
0.0
  0
LINE
  5
227
100
AcDbEntity
  8
文字
100
AcDbLine
 10
55.918125
 20
0.189635
 30
0.0
 11
54.675417
 21
-0.559844
 31
0.0
  0
LINE
  5
228
100
AcDbEntity
  8
文字
100
AcDbLine
 10
54.675417
 20
-0.559844
 30
0.0
 11
53.329583
 21
-1.229635
 31
0.0
  0
LINE
  5
229
100
AcDbEntity
  8
文字
100
AcDbLine
 10
53.329583
 20
-1.229635
 30
0.0
 11
51.8775
 21
-1.816615
 31
0.0
  0
LINE
  5
22A
100
AcDbEntity
  8
文字
100
AcDbLine
 10
51.8775
 20
-1.816615
 30
0.0
 11
50.316042
 21
-2.317656
 31
0.0
  0
LINE
  5
22B
100
AcDbEntity
  8
文字
100
AcDbLine
 10
75.980104
 20
12.975313
 30
0.0
 11
88.10901
 21
12.975313
 31
0.0
  0
LINE
  5
22C
100
AcDbEntity
  8
文字
100
AcDbLine
 10
88.10901
 20
12.975313
 30
0.0
 11
88.408906
 21
12.984531
 31
0.0
  0
LINE
  5
22D
100
AcDbEntity
  8
文字
100
AcDbLine
 10
88.408906
 20
12.984531
 30
0.0
 11
88.90776
 21
13.055469
 31
0.0
  0
LINE
  5
22E
100
AcDbEntity
  8
文字
100
AcDbLine
 10
88.90776
 20
13.055469
 30
0.0
 11
89.105469
 21
13.115313
 31
0.0
  0
LINE
  5
22F
100
AcDbEntity
  8
文字
100
AcDbLine
 10
89.105469
 20
13.115313
 30
0.0
 11
89.484219
 21
13.381094
 31
0.0
  0
LINE
  5
230
100
AcDbEntity
  8
文字
100
AcDbLine
 10
89.484219
 20
13.381094
 30
0.0
 11
89.551823
 21
13.620781
 31
0.0
  0
LINE
  5
231
100
AcDbEntity
  8
文字
100
AcDbLine
 10
89.551823
 20
13.620781
 30
0.0
 11
89.363385
 21
14.055312
 31
0.0
  0
LINE
  5
232
100
AcDbEntity
  8
文字
100
AcDbLine
 10
89.363385
 20
14.055312
 30
0.0
 11
89.220781
 21
14.216406
 31
0.0
  0
LINE
  5
233
100
AcDbEntity
  8
文字
100
AcDbLine
 10
89.220781
 20
14.216406
 30
0.0
 11
88.812135
 21
14.557344
 31
0.0
  0
LINE
  5
234
100
AcDbEntity
  8
文字
100
AcDbLine
 10
88.812135
 20
14.557344
 30
0.0
 11
85.472292
 21
17.194063
 31
0.0
  0
LINE
  5
235
100
AcDbEntity
  8
文字
100
AcDbLine
 10
85.472292
 20
17.194063
 30
0.0
 11
83.538698
 21
14.205781
 31
0.0
  0
LINE
  5
236
100
AcDbEntity
  8
文字
100
AcDbLine
 10
83.538698
 20
14.205781
 30
0.0
 11
71.409792
 21
14.205781
 31
0.0
  0
LINE
  5
237
100
AcDbEntity
  8
文字
100
AcDbLine
 10
71.409792
 20
14.205781
 30
0.0
 11
71.409792
 21
21.588594
 31
0.0
  0
LINE
  5
238
100
AcDbEntity
  8
文字
100
AcDbLine
 10
71.409792
 20
21.588594
 30
0.0
 11
71.709688
 21
21.670052
 31
0.0
  0
LINE
  5
239
100
AcDbEntity
  8
文字
100
AcDbLine
 10
71.709688
 20
21.670052
 30
0.0
 11
72.208542
 21
21.889531
 31
0.0
  0
LINE
  5
23A
100
AcDbEntity
  8
文字
100
AcDbLine
 10
72.208542
 20
21.889531
 30
0.0
 11
72.40625
 21
22.020677
 31
0.0
  0
LINE
  5
23B
100
AcDbEntity
  8
文字
100
AcDbLine
 10
72.40625
 20
22.020677
 30
0.0
 11
72.785
 21
22.45849
 31
0.0
  0
LINE
  5
23C
100
AcDbEntity
  8
文字
100
AcDbLine
 10
72.785
 20
22.45849
 30
0.0
 11
72.837708
 21
22.60776
 31
0.0
  0
LINE
  5
23D
100
AcDbEntity
  8
文字
100
AcDbLine
 10
72.837708
 20
22.60776
 30
0.0
 11
72.664167
 21
23.129844
 31
0.0
  0
LINE
  5
23E
100
AcDbEntity
  8
文字
100
AcDbLine
 10
72.664167
 20
23.129844
 30
0.0
 11
72.521562
 21
23.224427
 31
0.0
  0
LINE
  5
23F
100
AcDbEntity
  8
文字
100
AcDbLine
 10
72.521562
 20
23.224427
 30
0.0
 11
72.112917
 21
23.346406
 31
0.0
  0
LINE
  5
240
100
AcDbEntity
  8
文字
100
AcDbLine
 10
72.112917
 20
23.346406
 30
0.0
 11
68.069948
 21
23.697969
 31
0.0
  0
LINE
  5
241
100
AcDbEntity
  8
文字
100
AcDbLine
 10
68.069948
 20
23.697969
 30
0.0
 11
68.069948
 21
14.205781
 31
0.0
  0
LINE
  5
242
100
AcDbEntity
  8
文字
100
AcDbLine
 10
68.069948
 20
14.205781
 30
0.0
 11
50.491823
 21
14.205781
 31
0.0
  0
LINE
  5
243
100
AcDbEntity
  8
文字
100
AcDbLine
 10
50.491823
 20
14.205781
 30
0.0
 11
51.194948
 21
12.975313
 31
0.0
  0
LINE
  5
244
100
AcDbEntity
  8
文字
100
AcDbLine
 10
51.194948
 20
12.975313
 30
0.0
 11
72.64026
 21
12.975313
 31
0.0
  0
LINE
  5
245
100
AcDbEntity
  8
文字
100
AcDbLine
 10
72.64026
 20
12.975313
 30
0.0
 11
72.64026
 21
2.428438
 31
0.0
  0
LINE
  5
246
100
AcDbEntity
  8
文字
100
AcDbLine
 10
72.64026
 20
2.428438
 30
0.0
 11
72.674531
 21
1.663594
 31
0.0
  0
LINE
  5
247
100
AcDbEntity
  8
文字
100
AcDbLine
 10
72.674531
 20
1.663594
 30
0.0
 11
72.773802
 21
0.983125
 31
0.0
  0
LINE
  5
248
100
AcDbEntity
  8
文字
100
AcDbLine
 10
72.773802
 20
0.983125
 30
0.0
 11
72.93276
 21
0.382344
 31
0.0
  0
LINE
  5
249
100
AcDbEntity
  8
文字
100
AcDbLine
 10
72.93276
 20
0.382344
 30
0.0
 11
73.146094
 21
-0.143437
 31
0.0
  0
LINE
  5
24A
100
AcDbEntity
  8
文字
100
AcDbLine
 10
73.146094
 20
-0.143437
 30
0.0
 11
73.40849
 21
-0.598906
 31
0.0
  0
LINE
  5
24B
100
AcDbEntity
  8
文字
100
AcDbLine
 10
73.40849
 20
-0.598906
 30
0.0
 11
73.714635
 21
-0.98875
 31
0.0
  0
LINE
  5
24C
100
AcDbEntity
  8
文字
100
AcDbLine
 10
73.714635
 20
-0.98875
 30
0.0
 11
74.059219
 21
-1.317656
 31
0.0
  0
LINE
  5
24D
100
AcDbEntity
  8
文字
100
AcDbLine
 10
74.059219
 20
-1.317656
 30
0.0
 11
74.436927
 21
-1.590312
 31
0.0
  0
LINE
  5
24E
100
AcDbEntity
  8
文字
100
AcDbLine
 10
74.436927
 20
-1.590312
 30
0.0
 11
74.842448
 21
-1.811406
 31
0.0
  0
LINE
  5
24F
100
AcDbEntity
  8
文字
100
AcDbLine
 10
74.842448
 20
-1.811406
 30
0.0
 11
75.270469
 21
-1.985625
 31
0.0
  0
LINE
  5
250
100
AcDbEntity
  8
文字
100
AcDbLine
 10
75.270469
 20
-1.985625
 30
0.0
 11
75.715677
 21
-2.117656
 31
0.0
  0
LINE
  5
251
100
AcDbEntity
  8
文字
100
AcDbLine
 10
75.715677
 20
-2.117656
 30
0.0
 11
76.17276
 21
-2.212187
 31
0.0
  0
LINE
  5
252
100
AcDbEntity
  8
文字
100
AcDbLine
 10
76.17276
 20
-2.212187
 30
0.0
 11
76.636406
 21
-2.273906
 31
0.0
  0
LINE
  5
253
100
AcDbEntity
  8
文字
100
AcDbLine
 10
76.636406
 20
-2.273906
 30
0.0
 11
77.101302
 21
-2.3075
 31
0.0
  0
LINE
  5
254
100
AcDbEntity
  8
文字
100
AcDbLine
 10
77.101302
 20
-2.3075
 30
0.0
 11
77.562135
 21
-2.317656
 31
0.0
  0
LINE
  5
255
100
AcDbEntity
  8
文字
100
AcDbLine
 10
77.562135
 20
-2.317656
 30
0.0
 11
84.593385
 21
-2.317656
 31
0.0
  0
LINE
  5
256
100
AcDbEntity
  8
文字
100
AcDbLine
 10
84.593385
 20
-2.317656
 30
0.0
 11
85.458594
 21
-2.281615
 31
0.0
  0
LINE
  5
257
100
AcDbEntity
  8
文字
100
AcDbLine
 10
85.458594
 20
-2.281615
 30
0.0
 11
86.227552
 21
-2.179323
 31
0.0
  0
LINE
  5
258
100
AcDbEntity
  8
文字
100
AcDbLine
 10
86.227552
 20
-2.179323
 30
0.0
 11
86.902448
 21
-2.019531
 31
0.0
  0
LINE
  5
259
100
AcDbEntity
  8
文字
100
AcDbLine
 10
86.902448
 20
-2.019531
 30
0.0
 11
87.485469
 21
-1.81099
 31
0.0
  0
LINE
  5
25A
100
AcDbEntity
  8
文字
100
AcDbLine
 10
87.485469
 20
-1.81099
 30
0.0
 11
87.978802
 21
-1.562448
 31
0.0
  0
LINE
  5
25B
100
AcDbEntity
  8
文字
100
AcDbLine
 10
87.978802
 20
-1.562448
 30
0.0
 11
88.384635
 21
-1.282656
 31
0.0
  0
LINE
  5
25C
100
AcDbEntity
  8
文字
100
AcDbLine
 10
88.384635
 20
-1.282656
 30
0.0
 11
88.705156
 21
-0.980365
 31
0.0
  0
LINE
  5
25D
100
AcDbEntity
  8
文字
100
AcDbLine
 10
88.705156
 20
-0.980365
 30
0.0
 11
88.942552
 21
-0.664323
 31
0.0
  0
LINE
  5
25E
100
AcDbEntity
  8
文字
100
AcDbLine
 10
88.942552
 20
-0.664323
 30
0.0
 11
89.09901
 21
-0.343281
 31
0.0
  0
LINE
  5
25F
100
AcDbEntity
  8
文字
100
AcDbLine
 10
89.09901
 20
-0.343281
 30
0.0
 11
89.176719
 21
-0.02599
 31
0.0
  0
LINE
  5
260
100
AcDbEntity
  8
文字
100
AcDbLine
 10
89.176719
 20
-0.02599
 30
0.0
 11
89.104635
 21
0.562344
 31
0.0
  0
LINE
  5
261
100
AcDbEntity
  8
文字
100
AcDbLine
 10
89.104635
 20
0.562344
 30
0.0
 11
88.959219
 21
0.815885
 31
0.0
  0
LINE
  5
262
100
AcDbEntity
  8
文字
100
AcDbLine
 10
88.959219
 20
0.815885
 30
0.0
 11
88.460573
 21
1.197969
 31
0.0
  0
LINE
  5
263
100
AcDbEntity
  8
文字
100
AcDbLine
 10
88.460573
 20
1.197969
 30
0.0
 11
88.35974
 21
1.26625
 31
0.0
  0
LINE
  5
264
100
AcDbEntity
  8
文字
100
AcDbLine
 10
88.35974
 20
1.26625
 30
0.0
 11
87.934115
 21
1.6825
 31
0.0
  0
LINE
  5
265
100
AcDbEntity
  8
文字
100
AcDbLine
 10
87.934115
 20
1.6825
 30
0.0
 11
87.890156
 21
1.770469
 31
0.0
  0
LINE
  5
266
100
AcDbEntity
  8
文字
100
AcDbLine
 10
87.890156
 20
1.770469
 30
0.0
 11
87.76724
 21
2.4025
 31
0.0
  0
LINE
  5
267
100
AcDbEntity
  8
文字
100
AcDbLine
 10
87.76724
 20
2.4025
 30
0.0
 11
87.759844
 21
2.580469
 31
0.0
  0
LINE
  5
268
100
AcDbEntity
  8
文字
100
AcDbLine
 10
87.759844
 20
2.580469
 30
0.0
 11
87.757448
 21
2.78
 31
0.0
  0
LINE
  5
269
100
AcDbEntity
  8
文字
100
AcDbLine
 10
87.757448
 20
2.78
 30
0.0
 11
87.757448
 21
8.405
 31
0.0
  0
LINE
  5
26A
100
AcDbEntity
  8
文字
100
AcDbLine
 10
87.757448
 20
8.405
 30
0.0
 11
85.648073
 21
2.076875
 31
0.0
  0
LINE
  5
26B
100
AcDbEntity
  8
文字
100
AcDbLine
 10
85.648073
 20
2.076875
 30
0.0
 11
85.573073
 21
1.903594
 31
0.0
  0
LINE
  5
26C
100
AcDbEntity
  8
文字
100
AcDbLine
 10
85.573073
 20
1.903594
 30
0.0
 11
85.291823
 21
1.42125
 31
0.0
  0
LINE
  5
26D
100
AcDbEntity
  8
文字
100
AcDbLine
 10
85.291823
 20
1.42125
 30
0.0
 11
85.179323
 21
1.276094
 31
0.0
  0
LINE
  5
26E
100
AcDbEntity
  8
文字
100
AcDbLine
 10
85.179323
 20
1.276094
 30
0.0
 11
84.785573
 21
0.900625
 31
0.0
  0
LINE
  5
26F
100
AcDbEntity
  8
文字
100
AcDbLine
 10
84.785573
 20
0.900625
 30
0.0
 11
84.635573
 21
0.798594
 31
0.0
  0
LINE
  5
270
100
AcDbEntity
  8
文字
100
AcDbLine
 10
84.635573
 20
0.798594
 30
0.0
 11
84.129323
 21
0.575
 31
0.0
  0
LINE
  5
271
100
AcDbEntity
  8
文字
100
AcDbLine
 10
84.129323
 20
0.575
 30
0.0
 11
83.941823
 21
0.531094
 31
0.0
  0
LINE
  5
272
100
AcDbEntity
  8
文字
100
AcDbLine
 10
83.941823
 20
0.531094
 30
0.0
 11
83.538698
 21
0.494844
 31
0.0
  0
LINE
  5
273
100
AcDbEntity
  8
文字
100
AcDbLine
 10
83.538698
 20
0.494844
 30
0.0
 11
78.441042
 21
0.494844
 31
0.0
  0
LINE
  5
274
100
AcDbEntity
  8
文字
100
AcDbLine
 10
78.441042
 20
0.494844
 30
0.0
 11
78.072812
 21
0.499844
 31
0.0
  0
LINE
  5
275
100
AcDbEntity
  8
文字
100
AcDbLine
 10
78.072812
 20
0.499844
 30
0.0
 11
77.740521
 21
0.516094
 31
0.0
  0
LINE
  5
276
100
AcDbEntity
  8
文字
100
AcDbLine
 10
77.740521
 20
0.516094
 30
0.0
 11
77.1775
 21
0.589844
 31
0.0
  0
LINE
  5
277
100
AcDbEntity
  8
文字
100
AcDbLine
 10
77.1775
 20
0.589844
 30
0.0
 11
76.943646
 21
0.651094
 31
0.0
  0
LINE
  5
278
100
AcDbEntity
  8
文字
100
AcDbLine
 10
76.943646
 20
0.651094
 30
0.0
 11
76.563438
 21
0.831719
 31
0.0
  0
LINE
  5
279
100
AcDbEntity
  8
文字
100
AcDbLine
 10
76.563438
 20
0.831719
 30
0.0
 11
76.289479
 21
1.102344
 31
0.0
  0
LINE
  5
27A
100
AcDbEntity
  8
文字
100
AcDbLine
 10
76.289479
 20
1.102344
 30
0.0
 11
76.109271
 21
1.477969
 31
0.0
  0
LINE
  5
27B
100
AcDbEntity
  8
文字
100
AcDbLine
 10
76.109271
 20
1.477969
 30
0.0
 11
76.010312
 21
1.973594
 31
0.0
  0
LINE
  5
27C
100
AcDbEntity
  8
文字
100
AcDbLine
 10
76.010312
 20
1.973594
 30
0.0
 11
75.987396
 21
2.271094
 31
0.0
  0
LINE
  5
27D
100
AcDbEntity
  8
文字
100
AcDbLine
 10
75.987396
 20
2.271094
 30
0.0
 11
75.980104
 21
2.604219
 31
0.0
  0
LINE
  5
27E
100
AcDbEntity
  8
文字
100
AcDbLine
 10
75.980104
 20
2.604219
 30
0.0
 11
75.980104
 21
12.975313
 31
0.0
  0
LINE
  5
27F
100
AcDbEntity
  8
文字
100
AcDbLine
 10
56.644167
 20
37.93625
 30
0.0
 11
56.644167
 21
22.994844
 31
0.0
  0
LINE
  5
280
100
AcDbEntity
  8
文字
100
AcDbLine
 10
56.644167
 20
22.994844
 30
0.0
 11
56.686719
 21
22.675677
 31
0.0
  0
LINE
  5
281
100
AcDbEntity
  8
文字
100
AcDbLine
 10
56.686719
 20
22.675677
 30
0.0
 11
56.99151
 21
22.224219
 31
0.0
  0
LINE
  5
282
100
AcDbEntity
  8
文字
100
AcDbLine
 10
56.99151
 20
22.224219
 30
0.0
 11
57.23
 21
22.086927
 31
0.0
  0
LINE
  5
283
100
AcDbEntity
  8
文字
100
AcDbLine
 10
57.23
 20
22.086927
 30
0.0
 11
57.819792
 21
21.976719
 31
0.0
  0
LINE
  5
284
100
AcDbEntity
  8
文字
100
AcDbLine
 10
57.819792
 20
21.976719
 30
0.0
 11
58.147344
 21
21.998802
 31
0.0
  0
LINE
  5
285
100
AcDbEntity
  8
文字
100
AcDbLine
 10
58.147344
 20
21.998802
 30
0.0
 11
58.480833
 21
22.06901
 31
0.0
  0
LINE
  5
286
100
AcDbEntity
  8
文字
100
AcDbLine
 10
58.480833
 20
22.06901
 30
0.0
 11
58.808385
 21
22.184844
 31
0.0
  0
LINE
  5
287
100
AcDbEntity
  8
文字
100
AcDbLine
 10
58.808385
 20
22.184844
 30
0.0
 11
59.118125
 21
22.343802
 31
0.0
  0
LINE
  5
288
100
AcDbEntity
  8
文字
100
AcDbLine
 10
59.118125
 20
22.343802
 30
0.0
 11
59.398177
 21
22.543385
 31
0.0
  0
LINE
  5
289
100
AcDbEntity
  8
文字
100
AcDbLine
 10
59.398177
 20
22.543385
 30
0.0
 11
59.636667
 21
22.781094
 31
0.0
  0
LINE
  5
28A
100
AcDbEntity
  8
文字
100
AcDbLine
 10
59.636667
 20
22.781094
 30
0.0
 11
59.821719
 21
23.054427
 31
0.0
  0
LINE
  5
28B
100
AcDbEntity
  8
文字
100
AcDbLine
 10
59.821719
 20
23.054427
 30
0.0
 11
59.98401
 21
23.697969
 31
0.0
  0
LINE
  5
28C
100
AcDbEntity
  8
文字
100
AcDbLine
 10
59.98401
 20
23.697969
 30
0.0
 11
59.98401
 21
24.401094
 31
0.0
  0
LINE
  5
28D
100
AcDbEntity
  8
文字
100
AcDbLine
 10
59.98401
 20
24.401094
 30
0.0
 11
79.495729
 21
24.401094
 31
0.0
  0
LINE
  5
28E
100
AcDbEntity
  8
文字
100
AcDbLine
 10
79.495729
 20
24.401094
 30
0.0
 11
79.495729
 21
23.697969
 31
0.0
  0
LINE
  5
28F
100
AcDbEntity
  8
文字
100
AcDbLine
 10
79.495729
 20
23.697969
 30
0.0
 11
79.538281
 21
23.380938
 31
0.0
  0
LINE
  5
290
100
AcDbEntity
  8
文字
100
AcDbLine
 10
79.538281
 20
23.380938
 30
0.0
 11
79.843073
 21
22.942813
 31
0.0
  0
LINE
  5
291
100
AcDbEntity
  8
文字
100
AcDbLine
 10
79.843073
 20
22.942813
 30
0.0
 11
80.081562
 21
22.814219
 31
0.0
  0
LINE
  5
292
100
AcDbEntity
  8
文字
100
AcDbLine
 10
80.081562
 20
22.814219
 30
0.0
 11
80.671354
 21
22.719219
 31
0.0
  0
LINE
  5
293
100
AcDbEntity
  8
文字
100
AcDbLine
 10
80.671354
 20
22.719219
 30
0.0
 11
80.998906
 21
22.745313
 31
0.0
  0
LINE
  5
294
100
AcDbEntity
  8
文字
100
AcDbLine
 10
80.998906
 20
22.745313
 30
0.0
 11
81.332396
 21
22.815469
 31
0.0
  0
LINE
  5
295
100
AcDbEntity
  8
文字
100
AcDbLine
 10
81.332396
 20
22.815469
 30
0.0
 11
81.659948
 21
22.925938
 31
0.0
  0
LINE
  5
296
100
AcDbEntity
  8
文字
100
AcDbLine
 10
81.659948
 20
22.925938
 30
0.0
 11
81.969687
 21
23.072969
 31
0.0
  0
LINE
  5
297
100
AcDbEntity
  8
文字
100
AcDbLine
 10
81.969687
 20
23.072969
 30
0.0
 11
82.24974
 21
23.252813
 31
0.0
  0
LINE
  5
298
100
AcDbEntity
  8
文字
100
AcDbLine
 10
82.24974
 20
23.252813
 30
0.0
 11
82.673281
 21
23.695938
 31
0.0
  0
LINE
  5
299
100
AcDbEntity
  8
文字
100
AcDbLine
 10
82.673281
 20
23.695938
 30
0.0
 11
82.793021
 21
23.951719
 31
0.0
  0
LINE
  5
29A
100
AcDbEntity
  8
文字
100
AcDbLine
 10
82.793021
 20
23.951719
 30
0.0
 11
82.835573
 21
24.225313
 31
0.0
  0
LINE
  5
29B
100
AcDbEntity
  8
文字
100
AcDbLine
 10
82.835573
 20
24.225313
 30
0.0
 11
82.835573
 21
33.893281
 31
0.0
  0
LINE
  5
29C
100
AcDbEntity
  8
文字
100
AcDbLine
 10
82.835573
 20
33.893281
 30
0.0
 11
82.980052
 21
33.972656
 31
0.0
  0
LINE
  5
29D
100
AcDbEntity
  8
文字
100
AcDbLine
 10
82.980052
 20
33.972656
 30
0.0
 11
83.41974
 21
34.304531
 31
0.0
  0
LINE
  5
29E
100
AcDbEntity
  8
文字
100
AcDbLine
 10
83.41974
 20
34.304531
 30
0.0
 11
83.551719
 21
34.440156
 31
0.0
  0
LINE
  5
29F
100
AcDbEntity
  8
文字
100
AcDbLine
 10
83.551719
 20
34.440156
 30
0.0
 11
83.833906
 21
34.895781
 31
0.0
  0
LINE
  5
2A0
100
AcDbEntity
  8
文字
100
AcDbLine
 10
83.833906
 20
34.895781
 30
0.0
 11
83.873385
 21
35.057656
 31
0.0
  0
LINE
  5
2A1
100
AcDbEntity
  8
文字
100
AcDbLine
 10
83.873385
 20
35.057656
 30
0.0
 11
83.625052
 21
35.705156
 31
0.0
  0
LINE
  5
2A2
100
AcDbEntity
  8
文字
100
AcDbLine
 10
83.625052
 20
35.705156
 30
0.0
 11
83.436406
 21
35.857656
 31
0.0
  0
LINE
  5
2A3
100
AcDbEntity
  8
文字
100
AcDbLine
 10
83.436406
 20
35.857656
 30
0.0
 11
83.187135
 21
36.002656
 31
0.0
  0
LINE
  5
2A4
100
AcDbEntity
  8
文字
100
AcDbLine
 10
83.187135
 20
36.002656
 30
0.0
 11
80.550417
 21
37.760469
 31
0.0
  0
LINE
  5
2A5
100
AcDbEntity
  8
文字
100
AcDbLine
 10
80.550417
 20
37.760469
 30
0.0
 11
79.319948
 21
36.002656
 31
0.0
  0
LINE
  5
2A6
100
AcDbEntity
  8
文字
100
AcDbLine
 10
79.319948
 20
36.002656
 30
0.0
 11
60.335573
 21
36.002656
 31
0.0
  0
LINE
  5
2A7
100
AcDbEntity
  8
文字
100
AcDbLine
 10
60.335573
 20
36.002656
 30
0.0
 11
56.644167
 21
37.93625
 31
0.0
  0
LINE
  5
2A8
100
AcDbEntity
  8
文字
100
AcDbLine
 10
59.98401
 20
34.772188
 30
0.0
 11
79.495729
 21
34.772188
 31
0.0
  0
LINE
  5
2A9
100
AcDbEntity
  8
文字
100
AcDbLine
 10
79.495729
 20
34.772188
 30
0.0
 11
79.495729
 21
30.905
 31
0.0
  0
LINE
  5
2AA
100
AcDbEntity
  8
文字
100
AcDbLine
 10
79.495729
 20
30.905
 30
0.0
 11
59.98401
 21
30.905
 31
0.0
  0
LINE
  5
2AB
100
AcDbEntity
  8
文字
100
AcDbLine
 10
59.98401
 20
30.905
 30
0.0
 11
59.98401
 21
34.772188
 31
0.0
  0
LINE
  5
2AC
100
AcDbEntity
  8
文字
100
AcDbLine
 10
59.98401
 20
29.674531
 30
0.0
 11
79.495729
 21
29.674531
 31
0.0
  0
LINE
  5
2AD
100
AcDbEntity
  8
文字
100
AcDbLine
 10
79.495729
 20
29.674531
 30
0.0
 11
79.495729
 21
25.631563
 31
0.0
  0
LINE
  5
2AE
100
AcDbEntity
  8
文字
100
AcDbLine
 10
79.495729
 20
25.631563
 30
0.0
 11
59.98401
 21
25.631563
 31
0.0
  0
LINE
  5
2AF
100
AcDbEntity
  8
文字
100
AcDbLine
 10
59.98401
 20
25.631563
 30
0.0
 11
59.98401
 21
29.674531
 31
0.0
  0
TEXT
  5
2B0
100
AcDbEntity
  8
ﾚｲﾔ11
100
AcDbText
 10
-69.57176
 20
-78.375305
 30
0.0
 40
5.0
  1
S=0.2mm/rev
 41
0.556818
  7
文字ｽﾀｲﾙ1
 72
     5
 11
-38.94676
 21
-78.375305
 31
0.0
100
AcDbText
  0
TEXT
  5
2B1
100
AcDbEntity
  8
ﾚｲﾔ11
100
AcDbText
 10
-24.905875
 20
-78.727005
 30
0.0
 40
5.0
  1
V=500mm/min
 41
0.556818
  7
文字ｽﾀｲﾙ1
 72
     5
 11
5.719125
 21
-78.727005
 31
0.0
100
AcDbText
  0
TEXT
  5
2B2
100
AcDbEntity
  8
ﾚｲﾔ11
100
AcDbText
 10
15.891311
 20
-78.023605
 30
0.0
 40
5.0
  1
V↓=5000mm/min
 41
0.591856
  7
文字ｽﾀｲﾙ1
 72
     5
 11
54.953811
 21
-78.023605
 31
0.0
100
AcDbText
  0
TEXT
  5
2B3
100
AcDbEntity
  8
ﾚｲﾔ11
100
AcDbText
 10
68.646293
 20
-78.023605
 30
0.0
 40
5.0
  1
70Hz
 41
0.546875
  7
文字ｽﾀｲﾙ1
 72
     5
 11
79.583793
 21
-78.023605
 31
0.0
100
AcDbText
  0
TEXT
  5
2B4
100
AcDbEntity
  8
ﾚｲﾔ11
100
AcDbText
 10
116.829177
 20
-88.222902
 30
0.0
 40
5.0
  1
加工時間
 41
0.911458
  7
文字ｽﾀｲﾙ1
 72
     5
 11
138.704177
 21
-88.222902
 31
0.0
100
AcDbText
  0
TEXT
  5
2B5
100
AcDbEntity
  8
ﾚｲﾔ11
100
AcDbText
 10
118.551774
 20
-78.061706
 30
0.0
 40
5.0
  1
加工数
 41
0.902778
  7
文字ｽﾀｲﾙ1
 72
     5
 11
134.801774
 21
-78.061706
 31
0.0
100
AcDbText
  0
TEXT
  5
2B6
100
AcDbEntity
  8
ﾚｲﾔ11
100
AcDbText
 10
117.496674
 20
-67.51071
 30
0.0
 40
5.0
  1
加工日
 41
0.902778
  7
文字ｽﾀｲﾙ1
 72
     5
 11
133.746674
 21
-67.51071
 31
0.0
100
AcDbText
  0
TEXT
  5
2B7
100
AcDbEntity
  8
ﾚｲﾔ11
100
AcDbText
 10
67.872554
 20
-68.387029
 30
0.0
 40
5.0
  1
主軸回転数
 41
0.916667
  7
文字ｽﾀｲﾙ1
 72
     5
 11
95.372554
 21
-68.387029
 31
0.0
100
AcDbText
  0
TEXT
  5
2B8
100
AcDbEntity
  8
ﾚｲﾔ11
100
AcDbText
 10
17.57947
 20
-68.387029
 30
0.0
 40
5.0
  1
下降速度
 41
0.911458
  7
文字ｽﾀｲﾙ1
 72
     5
 11
39.45447
 21
-68.387029
 31
0.0
100
AcDbText
  0
TEXT
  5
2B9
100
AcDbEntity
  8
ﾚｲﾔ11
100
AcDbText
 10
-24.624515
 20
-68.387029
 30
0.0
 40
5.0
  1
切削速度
 41
0.911458
  7
文字ｽﾀｲﾙ1
 72
     5
 11
-2.749515
 21
-68.387029
 31
0.0
100
AcDbText
  0
TEXT
  5
2BA
100
AcDbEntity
  8
ﾚｲﾔ11
100
AcDbText
 10
-65.070002
 20
-68.035329
 30
0.0
 40
5.0
  1
切込み
 41
0.902778
  7
文字ｽﾀｲﾙ1
 72
     5
 11
-48.820002
 21
-68.035329
 31
0.0
100
AcDbText
  0
TEXT
  5
2BB
100
AcDbEntity
  8
ﾚｲﾔ11
100
AcDbText
 10
-72.134407
 20
-56.819033
 30
0.0
 40
5.0
  1
φ3エンドミル
 41
0.876524
  7
文字ｽﾀｲﾙ1
 72
     5
 11
-36.196907
 21
-56.819033
 31
0.0
100
AcDbText
  0
TEXT
  5
2BC
100
AcDbEntity
  8
ﾚｲﾔ11
100
AcDbText
 10
147.356727
 20
-68.387029
 30
0.0
 40
5.0
  1
2010.08.25
 41
0.55625
  7
文字ｽﾀｲﾙ1
 72
     5
 11
175.169227
 21
-68.387029
 31
0.0
100
AcDbText
  0
TEXT
  5
2BD
100
AcDbEntity
  8
ﾚｲﾔ11
100
AcDbText
 10
-21.878313
 20
-54.921734
 30
0.0
 40
5.0
  1
ＭＤＦ材
 41
0.911458
  7
文字ｽﾀｲﾙ1
 72
     5
 11
-0.003313
 21
-54.921734
 31
0.0
100
AcDbText
  0
DIMENSION
  5
2BE
100
AcDbEntity
  8
寸法
100
AcDbDimension
  2
*G0
 10
-1.479171
 20
-26.059761
 30
0.0
 11
45.063382
 21
-21.559761
 31
0.0
 71
     5
 72
     1
 41
1.0
 42
0.0
  3
＜＞中寸法
100
AcDbAlignedDimension
 13
-1.479171
 23
-2.229973
 33
0.0
 14
91.605935
 24
-6.698059
 34
0.0
100
AcDbRotatedDimension
  0
DIMENSION
  5
2D4
100
AcDbEntity
  8
寸法
100
AcDbDimension
  2
*G1
 10
121.393169
 20
38.355133
 30
0.0
 11
116.893169
 21
17.690239
 31
0.0
 71
     5
 72
     1
 41
1.0
 42
0.0
  3
＜＞中寸法
100
AcDbAlignedDimension
 13
83.786786
 23
38.355133
 33
0.0
 14
85.648488
 24
-2.974654
 34
0.0
 50
90.0
100
AcDbRotatedDimension
  0
POLYLINE
  5
2E8
100
AcDbEntity
  8
ﾚｲﾔ1
  6
Continuous
100
AcDb2dPolyline
 66
     1
 10
0.0
 20
0.0
 30
0.0
 70
     1
  0
VERTEX
  5
2EA
100
AcDbEntity
  8
ﾚｲﾔ1
  6
Continuous
100
AcDbVertex
100
AcDb2dVertex
 10
-90.404703
 20
-105.368271
 30
0.0
  0
VERTEX
  5
2EB
100
AcDbEntity
  8
ﾚｲﾔ1
  6
Continuous
100
AcDbVertex
100
AcDb2dVertex
 10
206.595297
 20
-105.368271
 30
0.0
  0
VERTEX
  5
2EC
100
AcDbEntity
  8
ﾚｲﾔ1
  6
Continuous
100
AcDbVertex
100
AcDb2dVertex
 10
206.595297
 20
104.631729
 30
0.0
  0
VERTEX
  5
2ED
100
AcDbEntity
  8
ﾚｲﾔ1
  6
Continuous
100
AcDbVertex
100
AcDb2dVertex
 10
-90.404703
 20
104.631729
 30
0.0
  0
SEQEND
  5
2EE
100
AcDbEntity
  8
ﾚｲﾔ1
  6
Continuous
  0
ENDSEC
  0
SECTION
  2
OBJECTS
  0
DICTIONARY
  5
19
100
AcDbDictionary
280
     0
281
     1
  3
ACAD_GROUP
350
1A
  3
ACAD_MLINESTYLE
350
1B
  3
ACAD_LAYOUT
350
1E
  3
ACAD_PLOTSETTINGS
350
22
  3
ACAD_PLOTSTYLENAME
350
1F
  0
DICTIONARY
  5
1A
102
{ACAD_REACTORS
330
19
102
}
100
AcDbDictionary
280
     0
281
     1
  0
DICTIONARY
  5
1B
102
{ACAD_REACTORS
330
19
102
}
100
AcDbDictionary
280
     0
281
     1
  3
Standard
350
1C
  0
MLINESTYLE
  5
1C
102
{ACAD_REACTORS
330
1B
102
}
100
AcDbMlineStyle
  2
Standard
 70
     0
  3

 62
     0
 51
90.0
 52
90.0
 71
     2
 49
0.5
 62
   256
  6
ByLayer
 49
-0.5
 62
   256
  6
ByLayer
  0
ACDBDICTIONARYWDFLT
  5
1F
102
{ACAD_REACTORS
330
19
102
}
100
AcDbDictionary
281
     1
  3
Normal
350
1D
100
AcDbDictionaryWithDefault
340
1D
  0
ACDBPLACEHOLDER
  5
1D
102
{ACAD_REACTORS
330
1F
102
}
  0
LAYOUT
  5
20
102
{ACAD_REACTORS
330
1E
102
}
100
AcDbPlotSettings
  1

  2

  4

  6

 40
0.0
 41
0.0
 42
0.0
 43
0.0
 44
0.0
 45
0.0
 46
0.0
 47
0.0
 48
0.0
 49
0.0
140
0.0
141
0.0
142
1.0
143
1.0
 70
  1024
 72
     0
 73
     0
 74
     0
  7

 75
     0
147
1.0
148
0.0
149
0.0
100
AcDbLayout
  1
Model
 70
     0
 71
     0
 10
0.0
 20
0.0
 11
0.0
 21
0.0
 12
0.0
 22
0.0
 32
0.0
 14
0.0
 24
0.0
 34
0.0
 15
0.0
 25
0.0
 35
0.0
146
0.0
 13
0.0
 23
0.0
 33
0.0
 16
0.0
 26
0.0
 36
0.0
 17
0.0
 27
0.0
 37
0.0
 76
     0
330
A
331
0
345
0
346
0
  0
LAYOUT
  5
21
102
{ACAD_REACTORS
330
1E
102
}
100
AcDbPlotSettings
  1

  2

  4

  6

 40
0.0
 41
0.0
 42
0.0
 43
0.0
 44
0.0
 45
0.0
 46
0.0
 47
0.0
 48
0.0
 49
0.0
140
0.0
141
0.0
142
1.0
143
1.0
 70
     0
 72
     0
 73
     0
 74
     0
  7

 75
     0
147
1.0
148
0.0
149
0.0
100
AcDbLayout
  1
Layout1
 70
     0
 71
     0
 10
0.0
 20
0.0
 11
0.0
 21
0.0
 12
0.0
 22
0.0
 32
0.0
 14
0.0
 24
0.0
 34
0.0
 15
0.0
 25
0.0
 35
0.0
146
0.0
 13
0.0
 23
0.0
 33
0.0
 16
0.0
 26
0.0
 36
0.0
 17
0.0
 27
0.0
 37
0.0
 76
     0
330
B
331
0
345
0
346
0
  0
DICTIONARY
  5
1E
102
{ACAD_REACTORS
330
19
102
}
100
AcDbDictionary
280
     0
281
     1
  3
Layout1
350
21
  3
Model
350
20
  0
DICTIONARY
  5
22
102
{ACAD_REACTORS
330
19
102
}
100
AcDbDictionary
280
     0
281
     1
  0
ENDSEC
  0
EOF
